  0
SECTION
  2
HEADER
  9
$ACADVER
  1
AC1021
  9
$ACADMAINTVER
 70
    25
  9
$DWGCODEPAGE
  3
ANSI_1252
  9
$INSBASE
 10
0.0
 20
0.0
 30
0.0
  9
$EXTMIN
 10
0.0
 20
0.0
 30
0.0
  9
$EXTMAX
 10
297.0
 20
210.0
 30
0.0
  9
$LIMMIN
 10
0.0
 20
0.0
  9
$LIMMAX
 10
297.0
 20
210.0
  9
$ORTHOMODE
 70
     0
  9
$REGENMODE
 70
     1
  9
$FILLMODE
 70
     1
  9
$QTEXTMODE
 70
     0
  9
$MIRRTEXT
 70
     1
  9
$LTSCALE
 40
1.0
  9
$ATTMODE
 70
     1
  9
$TEXTSIZE
 40
3.5
  9
$TRACEWID
 40
1.0
  9
$TEXTSTYLE
  7
Standard
  9
$CLAYER
  8
0
  9
$CELTYPE
  6
ByLayer
  9
$CECOLOR
 62
   256
  9
$CELTSCALE
 40
1.0
  9
$DISPSILH
 70
     0
  9
$DIMSCALE
 40
1.0
  9
$DIMASZ
 40
3.302
  9
$DIMEXO
 40
1.0
  9
$DIMDLI
 40
3.75
  9
$DIMRND
 40
0.0
  9
$DIMDLE
 40
0.0
  9
$DIMEXE
 40
1.0
  9
$DIMTP
 40
0.0
  9
$DIMTM
 40
0.0
  9
$DIMTXT
 40
3.5
  9
$DIMCEN
 40
2.5
  9
$DIMTSZ
 40
0.0
  9
$DIMTOL
 70
     0
  9
$DIMLIM
 70
     0
  9
$DIMTIH
 70
     1
  9
$DIMTOH
 70
     1
  9
$DIMSE1
 70
     0
  9
$DIMSE2
 70
     0
  9
$DIMTAD
 70
     1
  9
$DIMZIN
 70
     0
  9
$DIMBLK
  1

  9
$DIMASO
 70
     1
  9
$DIMSHO
 70
     1
  9
$DIMPOST
  1

  9
$DIMAPOST
  1

  9
$DIMALT
 70
     0
  9
$DIMALTD
 70
     3
  9
$DIMALTF
 40
0.0393700787
  9
$DIMLFAC
 40
1.0
  9
$DIMTOFL
 70
     1
  9
$DIMTVP
 40
0.0
  9
$DIMTIX
 70
     0
  9
$DIMSOXD
 70
     0
  9
$DIMSAH
 70
     0
  9
$DIMBLK1
  1

  9
$DIMBLK2
  1

  9
$DIMSTYLE
  2
ISO-25
  9
$DIMCLRD
 70
     0
  9
$DIMCLRE
 70
     0
  9
$DIMCLRT
 70
     0
  9
$DIMTFAC
 40
1.0
  9
$DIMGAP
 40
1.524
  9
$DIMJUST
 70
     0
  9
$DIMSD1
 70
     0
  9
$DIMSD2
 70
     0
  9
$DIMTOLJ
 70
     0
  9
$DIMTZIN
 70
     0
  9
$DIMALTZ
 70
     0
  9
$DIMALTTZ
 70
     0
  9
$DIMUPT
 70
     0
  9
$DIMDEC
 70
     2
  9
$DIMTDEC
 70
     2
  9
$DIMALTU
 70
     2
  9
$DIMALTTD
 70
     3
  9
$DIMTXSTY
  7
Standard
  9
$DIMAUNIT
 70
     0
  9
$DIMADEC
 70
     2
  9
$DIMALTRND
 40
0.0
  9
$DIMAZIN
 70
     0
  9
$DIMDSEP
 70
    44
  9
$DIMATFIT
 70
     3
  9
$DIMFRAC
 70
     0
  9
$DIMLDRBLK
  1

  9
$DIMLUNIT
 70
     2
  9
$DIMLWD
 70
    -2
  9
$DIMLWE
 70
    -2
  9
$DIMTMOVE
 70
     0
  9
$DIMFXL
 40
1.0
  9
$DIMFXLON
 70
     0
  9
$DIMJOGANG
 40
0.7853981634
  9
$DIMTFILL
 70
     0
  9
$DIMTFILLCLR
 70
     0
  9
$DIMARCSYM
 70
     0
  9
$DIMLTYPE
  6

  9
$DIMLTEX1
  6

  9
$DIMLTEX2
  6

  9
$LUNITS
 70
     2
  9
$LUPREC
 70
     2
  9
$SKETCHINC
 40
1.0
  9
$FILLETRAD
 40
10.0
  9
$AUNITS
 70
     0
  9
$AUPREC
 70
     2
  9
$MENU
  1
.
  9
$ELEVATION
 40
0.0
  9
$PELEVATION
 40
0.0
  9
$THICKNESS
 40
0.0
  9
$LIMCHECK
 70
     0
  9
$CHAMFERA
 40
10.0
  9
$CHAMFERB
 40
10.0
  9
$CHAMFERC
 40
20.0
  9
$CHAMFERD
 40
0.0
  9
$SKPOLY
 70
     0
  9
$TDCREATE
 40
2456420.43032081
  9
$TDUCREATE
 40
2456420.346987477
  9
$TDUPDATE
 40
2456420.430321979
  9
$TDUUPDATE
 40
2456420.346988646
  9
$TDINDWG
 40
0.0000000116
  9
$TDUSRTIMER
 40
0.0000000116
  9
$USRTIMER
 70
     1
  9
$ANGBASE
 50
0.0
  9
$ANGDIR
 70
     0
  9
$PDMODE
 70
     0
  9
$PDSIZE
 40
-1.0
  9
$PLINEWID
 40
0.0
  9
$SPLFRAME
 70
     0
  9
$SPLINETYPE
 70
     6
  9
$SPLINESEGS
 70
     8
  9
$HANDSEED
  5
365
  9
$SURFTAB1
 70
     6
  9
$SURFTAB2
 70
     6
  9
$SURFTYPE
 70
     6
  9
$SURFU
 70
     6
  9
$SURFV
 70
     6
  9
$UCSBASE
  2

  9
$UCSNAME
  2

  9
$UCSORG
 10
0.0
 20
0.0
 30
0.0
  9
$UCSXDIR
 10
1.0
 20
0.0
 30
0.0
  9
$UCSYDIR
 10
0.0
 20
1.0
 30
0.0
  9
$UCSORTHOREF
  2

  9
$UCSORTHOVIEW
 70
     0
  9
$UCSORGTOP
 10
0.0
 20
0.0
 30
0.0
  9
$UCSORGBOTTOM
 10
0.0
 20
0.0
 30
0.0
  9
$UCSORGLEFT
 10
0.0
 20
0.0
 30
0.0
  9
$UCSORGRIGHT
 10
0.0
 20
0.0
 30
0.0
  9
$UCSORGFRONT
 10
0.0
 20
0.0
 30
0.0
  9
$UCSORGBACK
 10
0.0
 20
0.0
 30
0.0
  9
$PUCSBASE
  2

  9
$PUCSNAME
  2

  9
$PUCSORG
 10
0.0
 20
0.0
 30
0.0
  9
$PUCSXDIR
 10
1.0
 20
0.0
 30
0.0
  9
$PUCSYDIR
 10
0.0
 20
1.0
 30
0.0
  9
$PUCSORTHOREF
  2

  9
$PUCSORTHOVIEW
 70
     0
  9
$PUCSORGTOP
 10
0.0
 20
0.0
 30
0.0
  9
$PUCSORGBOTTOM
 10
0.0
 20
0.0
 30
0.0
  9
$PUCSORGLEFT
 10
0.0
 20
0.0
 30
0.0
  9
$PUCSORGRIGHT
 10
0.0
 20
0.0
 30
0.0
  9
$PUCSORGFRONT
 10
0.0
 20
0.0
 30
0.0
  9
$PUCSORGBACK
 10
0.0
 20
0.0
 30
0.0
  9
$USERI1
 70
     0
  9
$USERI2
 70
     0
  9
$USERI3
 70
     0
  9
$USERI4
 70
     0
  9
$USERI5
 70
     0
  9
$USERR1
 40
0.0
  9
$USERR2
 40
0.0
  9
$USERR3
 40
0.0
  9
$USERR4
 40
0.0
  9
$USERR5
 40
0.0
  9
$WORLDVIEW
 70
     1
  9
$SHADEDGE
 70
     3
  9
$SHADEDIF
 70
    70
  9
$TILEMODE
 70
     1
  9
$MAXACTVP
 70
    64
  9
$PINSBASE
 10
0.0
 20
0.0
 30
0.0
  9
$PLIMCHECK
 70
     0
  9
$PEXTMIN
 10
1.0000000000E+20
 20
1.0000000000E+20
 30
1.0000000000E+20
  9
$PEXTMAX
 10
-1.0000000000E+20
 20
-1.0000000000E+20
 30
-1.0000000000E+20
  9
$PLIMMIN
 10
0.0
 20
0.0
  9
$PLIMMAX
 10
420.0
 20
297.0
  9
$UNITMODE
 70
     0
  9
$VISRETAIN
 70
     1
  9
$PLINEGEN
 70
     0
  9
$PSLTSCALE
 70
     1
  9
$TREEDEPTH
 70
  3020
  9
$CMLSTYLE
  2
Standard
  9
$CMLJUST
 70
     0
  9
$CMLSCALE
 40
20.0
  9
$PROXYGRAPHICS
 70
     1
  9
$MEASUREMENT
 70
     1
  9
$CELWEIGHT
370
    -1
  9
$ENDCAPS
280
     0
  9
$JOINSTYLE
280
     0
  9
$LWDISPLAY
290
     1
  9
$INSUNITS
 70
     4
  9
$HYPERLINKBASE
  1

  9
$STYLESHEET
  1

  9
$XEDIT
290
     1
  9
$CEPSNTYPE
380
     0
  9
$PSTYLEMODE
290
     1
  9
$FINGERPRINTGUID
  2
{E27D5454-23E1-432C-9044-6227529DA20D}
  9
$VERSIONGUID
  2
{FAEB1C32-E019-11D5-929B-00C0DF256EC4}
  9
$EXTNAMES
290
     1
  9
$PSVPSCALE
 40
0.0
  9
$OLESTARTUP
290
     0
  9
$SORTENTS
280
   127
  9
$INDEXCTL
280
     0
  9
$HIDETEXT
280
     1
  9
$XCLIPFRAME
290
     0
  9
$HALOGAP
280
     0
  9
$OBSCOLOR
 70
   257
  9
$OBSLTYPE
280
     0
  9
$INTERSECTIONDISPLAY
280
     0
  9
$INTERSECTIONCOLOR
 70
   257
  9
$DIMASSOC
280
     2
  9
$PROJECTNAME
  1

  9
$CAMERADISPLAY
290
     0
  9
$LENSLENGTH
 40
50.0
  9
$CAMERAHEIGHT
 40
0.0
  9
$STEPSPERSEC
 40
2.0
  9
$STEPSIZE
 40
6.0
  9
$3DDWFPREC
 40
2.0
  9
$PSOLWIDTH
 40
5.0
  9
$PSOLHEIGHT
 40
80.0
  9
$LOFTANG1
 40
1.5707963268
  9
$LOFTANG2
 40
1.5707963268
  9
$LOFTMAG1
 40
0.0
  9
$LOFTMAG2
 40
0.0
  9
$LOFTPARAM
 70
     7
  9
$LOFTNORMALS
280
     1
  9
$LATITUDE
 40
37.795
  9
$LONGITUDE
 40
-122.394
  9
$NORTHDIRECTION
 40
0.0
  9
$TIMEZONE
 70
 -8000
  9
$LIGHTGLYPHDISPLAY
280
     1
  9
$TILEMODELIGHTSYNCH
280
     1
  9
$SOLIDHIST
280
     1
  9
$SHOWHIST
280
     1
  9
$DWFFRAME
280
     2
  9
$DGNFRAME
280
     2
  9
$REALWORLDSCALE
290
     1
  9
$INTERFERECOLOR
 62
   256
  9
$CSHADOW
280
     0
  9
$SHADOWPLANELOCATION
 40
0.0
  0
ENDSEC
  0
SECTION
  2
CLASSES
  0
CLASS
  1
ACDBDICTIONARYWDFLT
  2
AcDbDictionaryWithDefault
  3
ObjectDBX Classes
 90
        0
 91
        4
280
     0
281
     0
  0
CLASS
  1
VISUALSTYLE
  2
AcDbVisualStyle
  3
ObjectDBX Classes
 90
     4095
 91
        4
280
     0
281
     0
  0
CLASS
  1
MATERIAL
  2
AcDbMaterial
  3
ObjectDBX Classes
 90
     1153
 91
        4
280
     0
281
     0
  0
ENDSEC
  0
SECTION
  2
TABLES
  0
TABLE
  2
VPORT
  5
8
330
0
100
AcDbSymbolTable
 70
     1
  0
VPORT
  5
29
330
8
100
AcDbSymbolTableRecord
100
AcDbViewportTableRecord
  2
*Active
 70
     0
 10
0.0
 20
0.0
 11
1.0
 21
1.0
 12
148.5
 22
105.0
 13
0.0
 23
0.0
 14
10.0
 24
10.0
 15
10.0
 25
10.0
 16
0.0
 26
0.0
 36
1.0
 17
0.0
 27
0.0
 37
0.0
 40
210.0
 41
1.4142857143
 42
50.0
 43
0.0
 44
0.0
 50
0.0
 51
0.0
 71
     0
 72
  2000
 73
     1
 74
     3
 75
     0
 76
     0
 77
     0
 78
     0
281
     0
 65
     1
110
0.0
120
0.0
130
0.0
111
1.0
121
0.0
131
0.0
112
0.0
122
1.0
132
0.0
 79
     0
146
0.0
 60
     3
 61
     5
292
     1
282
     1
141
0.0
142
0.0
 63
   250
  0
ENDTAB
  0
TABLE
  2
LTYPE
  5
5
330
0
100
AcDbSymbolTable
 70
     8
  0
LTYPE
  5
14
330
5
100
AcDbSymbolTableRecord
100
AcDbLinetypeTableRecord
  2
ByBlock
 70
     0
  3

 72
    65
 73
     0
 40
0.0
  0
LTYPE
  5
15
330
5
100
AcDbSymbolTableRecord
100
AcDbLinetypeTableRecord
  2
ByLayer
 70
     0
  3

 72
    65
 73
     0
 40
0.0
  0
LTYPE
  5
16
330
5
100
AcDbSymbolTableRecord
100
AcDbLinetypeTableRecord
  2
Continuous
 70
     0
  3
Solid line
 72
    65
 73
     0
 40
0.0
  0
LTYPE
  5
3F
330
5
100
AcDbSymbolTableRecord
100
AcDbLinetypeTableRecord
  2
SLD-Durchgehend
 70
     0
  3
SolidWorks Line Style
 72
    65
 73
     0
 40
0.0
  0
LTYPE
  5
40
330
5
100
AcDbSymbolTableRecord
100
AcDbLinetypeTableRecord
  2
SLD-Gestrichelt
 70
     0
  3
SolidWorks Line Style
 72
    65
 73
     2
 40
1.905
 49
1.27
 74
     0
 49
-0.635
 74
     0
  0
LTYPE
  5
41
330
5
100
AcDbSymbolTableRecord
100
AcDbLinetypeTableRecord
  2
SLD-Phantom
 70
     0
  3
SolidWorks Line Style
 72
    65
 73
     6
 40
12.7
 49
6.35
 74
     0
 49
-1.27
 74
     0
 49
1.27
 74
     0
 49
-1.27
 74
     0
 49
1.27
 74
     0
 49
-1.27
 74
     0
  0
LTYPE
  5
42
330
5
100
AcDbSymbolTableRecord
100
AcDbLinetypeTableRecord
  2
SLD-Kette
 70
     0
  3
SolidWorks Line Style
 72
    65
 73
     4
 40
10.16
 49
6.35
 74
     0
 49
-1.27
 74
     0
 49
1.27
 74
     0
 49
-1.27
 74
     0
  0
LTYPE
  5
43
330
5
100
AcDbSymbolTableRecord
100
AcDbLinetypeTableRecord
  2
SLD-Punktstrich
 70
     0
  3
SolidWorks Line Style
 72
    65
 73
     4
 40
19.05
 49
15.24
 74
     0
 49
-1.27
 74
     0
 49
1.27
 74
     0
 49
-1.27
 74
     0
  0
LTYPE
  5
44
330
5
100
AcDbSymbolTableRecord
100
AcDbLinetypeTableRecord
  2
SLD-Naht
 70
     0
  3
SolidWorks Line Style
 72
    65
 73
     2
 40
0.635
 49
0.0
 74
     0
 49
-0.635
 74
     0
  0
LTYPE
  5
45
330
5
100
AcDbSymbolTableRecord
100
AcDbLinetypeTableRecord
  2
SLD-Dicke-Dünne-Kette
 70
     0
  3
SolidWorks Line Style
 72
    65
 73
     4
 40
10.16
 49
6.35
 74
     0
 49
-1.27
 74
     0
 49
1.27
 74
     0
 49
-1.27
 74
     0
  0
ENDTAB
  0
TABLE
  2
LAYER
  5
2
330
0
100
AcDbSymbolTable
 70
     3
  0
LAYER
  5
10
330
2
100
AcDbSymbolTableRecord
100
AcDbLayerTableRecord
  2
0
 70
     0
 62
     7
  6
Continuous
370
    -3
390
F
347
3E
  0
LAYER
  5
46
330
2
100
AcDbSymbolTableRecord
100
AcDbLayerTableRecord
  2
1
 70
     0
 62
     4
  6
Continuous
370
    -1
390
F
347
3E
  0
LAYER
  5
47
330
2
100
AcDbSymbolTableRecord
100
AcDbLayerTableRecord
  2
2
 70
     0
 62
     7
  6
SLD-Durchgehend
370
    -3
390
F
347
3E
  0
ENDTAB
  0
TABLE
  2
STYLE
  5
3
330
0
100
AcDbSymbolTable
 70
     2
  0
STYLE
  5
11
330
3
100
AcDbSymbolTableRecord
100
AcDbTextStyleTableRecord
  2
Standard
 70
     0
 40
0.0
 41
1.0
 50
0.0
 71
     0
 42
3.5
  3
txt
  4

  0
STYLE
  5
31C
330
3
100
AcDbSymbolTableRecord
100
AcDbTextStyleTableRecord
  2
SLDTEXTSTYLE0
 70
     0
 40
0.0
 41
0.75
 50
0.0
 71
     0
 42
0.2
  3
TXT
  4

  0
ENDTAB
  0
TABLE
  2
VIEW
  5
6
330
0
100
AcDbSymbolTable
 70
     0
  0
ENDTAB
  0
TABLE
  2
UCS
  5
7
330
0
100
AcDbSymbolTable
 70
     0
  0
ENDTAB
  0
TABLE
  2
APPID
  5
9
330
0
100
AcDbSymbolTable
 70
     1
  0
APPID
  5
12
330
9
100
AcDbSymbolTableRecord
100
AcDbRegAppTableRecord
  2
ACAD
 70
     0
  0
ENDTAB
  0
TABLE
  2
DIMSTYLE
  5
A
330
0
100
AcDbSymbolTable
 70
     3
100
AcDbDimStyleTable
  0
DIMSTYLE
105
27
330
A
100
AcDbSymbolTableRecord
100
AcDbDimStyleTableRecord
  2
ISO-25
 70
     0
 41
2.5
 42
0.625
 43
3.75
 44
1.25
 73
     0
 74
     0
 77
     1
 78
     8
140
2.5
141
2.5
143
0.0393700787
147
0.625
171
     3
172
     1
178
     0
271
     2
272
     2
274
     3
278
    44
283
     0
284
     8
340
11
  0
DIMSTYLE
105
31D
102
{ACAD_REACTORS
330
31B
330
328
330
34C
330
358
102
}
330
A
100
AcDbSymbolTableRecord
100
AcDbDimStyleTableRecord
  2
SLDDIMSTYLE0
 70
     0
 41
3.302
 44
0.0
 45
0.000000001
 73
     0
 74
     0
 77
     1
 78
    12
 79
     3
140
3.5
147
0.875
173
     1
178
     0
271
     2
272
     2
276
     2
284
    12
340
31C
  0
DIMSTYLE
105
333
102
{ACAD_REACTORS
330
332
330
33F
102
}
330
A
100
AcDbSymbolTableRecord
100
AcDbDimStyleTableRecord
  2
SLDDIMSTYLE1
 70
     0
 41
3.302
 44
0.0
 45
0.000000001
 73
     0
 74
     0
 77
     1
 78
    12
 79
     3
140
3.5
147
0.875
172
     1
173
     1
178
     0
271
     2
272
     2
276
     2
284
    12
289
     0
340
31C
  0
ENDTAB
  0
TABLE
  2
BLOCK_RECORD
  5
1
330
0
100
AcDbSymbolTable
 70
     7
  0
BLOCK_RECORD
  5
1F
330
1
100
AcDbSymbolTableRecord
100
AcDbBlockTableRecord
  2
*Model_Space
340
22
 70
     0
280
     1
281
     0
  0
BLOCK_RECORD
  5
1B
330
1
100
AcDbSymbolTableRecord
100
AcDbBlockTableRecord
  2
*Paper_Space
340
1E
 70
     0
280
     1
281
     0
  0
BLOCK_RECORD
  5
23
330
1
100
AcDbSymbolTableRecord
100
AcDbBlockTableRecord
  2
*Paper_Space0
340
26
 70
     0
280
     1
281
     0
  0
BLOCK_RECORD
  5
31E
330
1
100
AcDbSymbolTableRecord
100
AcDbBlockTableRecord
  2
_D
340
0
 70
     0
280
     1
281
     0
  0
BLOCK_RECORD
  5
329
330
1
100
AcDbSymbolTableRecord
100
AcDbBlockTableRecord
  2
_D_1
340
0
 70
     0
280
     1
281
     0
  0
BLOCK_RECORD
  5
334
330
1
100
AcDbSymbolTableRecord
100
AcDbBlockTableRecord
  2
_D_2
340
0
 70
     0
280
     1
281
     0
  0
BLOCK_RECORD
  5
340
330
1
100
AcDbSymbolTableRecord
100
AcDbBlockTableRecord
  2
_D_3
340
0
 70
     0
280
     1
281
     0
  0
BLOCK_RECORD
  5
34D
330
1
100
AcDbSymbolTableRecord
100
AcDbBlockTableRecord
  2
_D_4
340
0
 70
     0
280
     1
281
     0
  0
BLOCK_RECORD
  5
359
330
1
100
AcDbSymbolTableRecord
100
AcDbBlockTableRecord
  2
_D_5
340
0
 70
     0
280
     1
281
     0
  0
ENDTAB
  0
ENDSEC
  0
SECTION
  2
BLOCKS
  0
BLOCK
  5
20
330
1F
100
AcDbEntity
  8
0
100
AcDbBlockBegin
  2
*Model_Space
 70
     0
 10
0.0
 20
0.0
 30
0.0
  3
*Model_Space
  1

  0
ENDBLK
  5
21
330
1F
100
AcDbEntity
  8
0
100
AcDbBlockEnd
  0
BLOCK
  5
1C
330
1B
100
AcDbEntity
 67
     1
  8
0
100
AcDbBlockBegin
  2
*Paper_Space
 70
     0
 10
0.0
 20
0.0
 30
0.0
  3
*Paper_Space
  1

  0
ENDBLK
  5
1D
330
1B
100
AcDbEntity
 67
     1
  8
0
100
AcDbBlockEnd
  0
BLOCK
  5
24
330
23
100
AcDbEntity
  8
0
100
AcDbBlockBegin
  2
*Paper_Space0
 70
     0
 10
0.0
 20
0.0
 30
0.0
  3
*Paper_Space0
  1

  0
ENDBLK
  5
25
330
23
100
AcDbEntity
  8
0
100
AcDbBlockEnd
  0
BLOCK
  5
31F
330
31E
100
AcDbEntity
  8
0
100
AcDbBlockBegin
  2
_D
 70
     0
 10
0.0
 20
0.0
 30
0.0
  3
_D
  1

  0
SOLID
  5
321
330
31E
100
AcDbEntity
  8
2
 62
     7
420
 16777215
100
AcDbTrace
 10
62.0010088739
 20
31.499520923
 30
0.0
 11
61.4930088739
 21
28.197520923
 31
0.0
 12
62.5090088739
 22
28.197520923
 32
0.0
 13
62.5090088739
 23
28.197520923
 33
0.0
  0
SOLID
  5
322
330
31E
100
AcDbEntity
  8
2
 62
     7
420
 16777215
100
AcDbTrace
 10
62.0010088739
 20
-31.500479077
 30
0.0
 11
62.5090088739
 21
-28.198479077
 31
0.0
 12
61.4930088739
 22
-28.198479077
 32
0.0
 13
61.4930088739
 23
-28.198479077
 33
0.0
  0
LINE
  5
323
330
31E
100
AcDbEntity
  8
2
 62
     7
420
 16777215
100
AcDbLine
 10
41.0010088739
 20
31.499520923
 30
0.0
 11
63.0010088739
 21
31.499520923
 31
0.0
  0
LINE
  5
324
330
31E
100
AcDbEntity
  8
2
 62
     7
420
 16777215
100
AcDbLine
 10
41.0010088739
 20
-31.500479077
 30
0.0
 11
63.0010088739
 21
-31.500479077
 31
0.0
  0
LINE
  5
325
330
31E
100
AcDbEntity
  8
2
 62
     7
420
 16777215
100
AcDbLine
 10
62.0010088739
 20
31.499520923
 30
0.0
 11
62.0010088739
 21
-31.500479077
 31
0.0
  0
MTEXT
  5
326
330
31E
100
AcDbEntity
  8
2
 62
     7
420
 16777215
100
AcDbMText
 10
57.4892717847
 20
-6.6476840572
 30
0.0
 40
3.5
 41
0.0
 46
0.0
 71
     1
 72
     1
  1
%%c
  7
SLDTEXTSTYLE0
 11
-7.044195017643634E-15
 21
1.0
 31
0.0
 73
     1
 44
1.0
  0
MTEXT
  5
327
330
31E
100
AcDbEntity
  8
2
 62
     7
420
 16777215
100
AcDbMText
 10
57.435799608
 20
-1.3692466589
 30
0.0
 40
3.5
 41
0.0
 46
0.0
 71
     1
 72
     1
  1
63
  7
SLDTEXTSTYLE0
 11
-7.044195017643634E-15
 21
1.0
 31
0.0
 73
     1
 44
1.0
  0
ENDBLK
  5
320
330
31E
100
AcDbEntity
  8
0
100
AcDbBlockEnd
  0
BLOCK
  5
32A
330
329
100
AcDbEntity
  8
0
100
AcDbBlockBegin
  2
_D_1
 70
     0
 10
0.0
 20
0.0
 30
0.0
  3
_D_1
  1

  0
SOLID
  5
32C
330
329
100
AcDbEntity
  8
2
 62
     7
420
 16777215
100
AcDbTrace
 10
40.0010088739
 20
54.499520923
 30
0.0
 11
36.6990088739
 21
55.007520923
 31
0.0
 12
36.6990088739
 22
53.991520923
 32
0.0
 13
36.6990088739
 23
53.991520923
 33
0.0
  0
SOLID
  5
32D
330
329
100
AcDbEntity
  8
2
 62
     7
420
 16777215
100
AcDbTrace
 10
0.0010088739
 20
54.499520923
 30
0.0
 11
3.3030088739
 21
53.991520923
 31
0.0
 12
3.3030088739
 22
55.007520923
 32
0.0
 13
3.3030088739
 23
55.007520923
 33
0.0
  0
LINE
  5
32E
330
329
100
AcDbEntity
  8
2
 62
     7
420
 16777215
100
AcDbLine
 10
40.0010088739
 20
0.999520923
 30
0.0
 11
40.0010088739
 21
55.499520923
 31
0.0
  0
LINE
  5
32F
330
329
100
AcDbEntity
  8
2
 62
     7
420
 16777215
100
AcDbLine
 10
0.0010088739
 20
0.999520923
 30
0.0
 11
0.0010088739
 21
55.499520923
 31
0.0
  0
LINE
  5
330
330
329
100
AcDbEntity
  8
2
 62
     7
420
 16777215
100
AcDbLine
 10
40.0010088739
 20
54.499520923
 30
0.0
 11
0.0010088739
 21
54.499520923
 31
0.0
  0
MTEXT
  5
331
330
329
100
AcDbEntity
  8
2
 62
     7
420
 16777215
100
AcDbMText
 10
15.9930225928
 20
59.0112578376
 30
0.0
 40
3.5
 41
0.0
 46
0.0
 71
     1
 72
     1
  1
40
  7
SLDTEXTSTYLE0
 73
     1
 44
1.0
  0
ENDBLK
  5
32B
330
329
100
AcDbEntity
  8
0
100
AcDbBlockEnd
  0
BLOCK
  5
335
330
334
100
AcDbEntity
  8
0
100
AcDbBlockBegin
  2
_D_2
 70
     0
 10
0.0
 20
0.0
 30
0.0
  3
_D_2
  1

  0
SOLID
  5
337
330
334
100
AcDbEntity
  8
2
 62
     7
420
 16777215
100
AcDbTrace
 10
40.0010088739
 20
48.499520923
 30
0.0
 11
43.3030088739
 21
47.991520923
 31
0.0
 12
43.3030088739
 22
49.007520923
 32
0.0
 13
43.3030088739
 23
49.007520923
 33
0.0
  0
SOLID
  5
338
330
334
100
AcDbEntity
  8
2
 62
     7
420
 16777215
100
AcDbTrace
 10
33.0010088739
 20
48.499520923
 30
0.0
 11
29.6990088739
 21
49.007520923
 31
0.0
 12
29.6990088739
 22
47.991520923
 32
0.0
 13
29.6990088739
 23
47.991520923
 33
0.0
  0
LINE
  5
339
330
334
100
AcDbEntity
  8
2
 62
     7
420
 16777215
100
AcDbLine
 10
40.0010088739
 20
0.999520923
 30
0.0
 11
40.0010088739
 21
49.499520923
 31
0.0
  0
LINE
  5
33A
330
334
100
AcDbEntity
  8
2
 62
     7
420
 16777215
100
AcDbLine
 10
33.0010088739
 20
0.999520923
 30
0.0
 11
33.0010088739
 21
49.499520923
 31
0.0
  0
LINE
  5
33B
330
334
100
AcDbEntity
  8
2
 62
     7
420
 16777215
100
AcDbLine
 10
40.0010088739
 20
48.499520923
 30
0.0
 11
46.3510088739
 21
48.499520923
 31
0.0
  0
LINE
  5
33C
330
334
100
AcDbEntity
  8
2
 62
     7
420
 16777215
100
AcDbLine
 10
40.0010088739
 20
48.499520923
 30
0.0
 11
33.0010088739
 21
48.499520923
 31
0.0
  0
LINE
  5
33D
330
334
100
AcDbEntity
  8
2
 62
     7
420
 16777215
100
AcDbLine
 10
33.0010088739
 20
48.499520923
 30
0.0
 11
26.6510088739
 21
48.499520923
 31
0.0
  0
MTEXT
  5
33E
330
334
100
AcDbEntity
  8
2
 62
     7
420
 16777215
100
AcDbMText
 10
33.786078306
 20
53.0112578376
 30
0.0
 40
3.5
 41
0.0
 46
0.0
 71
     1
 72
     1
  1
7
  7
SLDTEXTSTYLE0
 73
     1
 44
1.0
  0
ENDBLK
  5
336
330
334
100
AcDbEntity
  8
0
100
AcDbBlockEnd
  0
BLOCK
  5
341
330
340
100
AcDbEntity
  8
0
100
AcDbBlockBegin
  2
_D_3
 70
     0
 10
0.0
 20
0.0
 30
0.0
  3
_D_3
  1

  0
SOLID
  5
343
330
340
100
AcDbEntity
  8
2
 62
     7
420
 16777215
100
AcDbTrace
 10
-9.9989911261
 20
10.999520923
 30
0.0
 11
-9.4909911261
 21
14.301520923
 31
0.0
 12
-10.5069911261
 22
14.301520923
 32
0.0
 13
-10.5069911261
 23
14.301520923
 33
0.0
  0
SOLID
  5
344
330
340
100
AcDbEntity
  8
2
 62
     7
420
 16777215
100
AcDbTrace
 10
-9.9989911261
 20
-11.000479077
 30
0.0
 11
-10.5069911261
 21
-14.302479077
 31
0.0
 12
-9.4909911261
 22
-14.302479077
 32
0.0
 13
-9.4909911261
 23
-14.302479077
 33
0.0
  0
LINE
  5
345
330
340
100
AcDbEntity
  8
2
 62
     7
420
 16777215
100
AcDbLine
 10
19.0010088739
 20
10.999520923
 30
0.0
 11
-10.9989911261
 21
10.999520923
 31
0.0
  0
LINE
  5
346
330
340
100
AcDbEntity
  8
2
 62
     7
420
 16777215
100
AcDbLine
 10
19.0010088739
 20
-11.000479077
 30
0.0
 11
-10.9989911261
 21
-11.000479077
 31
0.0
  0
LINE
  5
347
330
340
100
AcDbEntity
  8
2
 62
     7
420
 16777215
100
AcDbLine
 10
-9.9989911261
 20
10.999520923
 30
0.0
 11
-9.9989911261
 21
17.349520923
 31
0.0
  0
LINE
  5
348
330
340
100
AcDbEntity
  8
2
 62
     7
420
 16777215
100
AcDbLine
 10
-9.9989911261
 20
10.999520923
 30
0.0
 11
-9.9989911261
 21
-11.000479077
 31
0.0
  0
LINE
  5
349
330
340
100
AcDbEntity
  8
2
 62
     7
420
 16777215
100
AcDbLine
 10
-9.9989911261
 20
-11.000479077
 30
0.0
 11
-9.9989911261
 21
-17.350479077
 31
0.0
  0
MTEXT
  5
34A
330
340
100
AcDbEntity
  8
2
 62
     7
420
 16777215
100
AcDbMText
 10
-14.5107282153
 20
-6.6476840572
 30
0.0
 40
3.5
 41
0.0
 46
0.0
 71
     1
 72
     1
  1
%%c
  7
SLDTEXTSTYLE0
 11
-7.044195017643634E-15
 21
1.0
 31
0.0
 73
     1
 44
1.0
  0
MTEXT
  5
34B
330
340
100
AcDbEntity
  8
2
 62
     7
420
 16777215
100
AcDbMText
 10
-14.564200392
 20
-1.3692466589
 30
0.0
 40
3.5
 41
0.0
 46
0.0
 71
     1
 72
     1
  1
22
  7
SLDTEXTSTYLE0
 11
-7.044195017643634E-15
 21
1.0
 31
0.0
 73
     1
 44
1.0
  0
ENDBLK
  5
342
330
340
100
AcDbEntity
  8
0
100
AcDbBlockEnd
  0
BLOCK
  5
34E
330
34D
100
AcDbEntity
  8
0
100
AcDbBlockBegin
  2
_D_4
 70
     0
 10
0.0
 20
0.0
 30
0.0
  3
_D_4
  1

  0
SOLID
  5
350
330
34D
100
AcDbEntity
  8
2
 62
     7
420
 16777215
100
AcDbTrace
 10
50.0010088739
 20
5.249520923
 30
0.0
 11
49.4930088739
 21
1.947520923
 31
0.0
 12
50.5090088739
 22
1.947520923
 32
0.0
 13
50.5090088739
 23
1.947520923
 33
0.0
  0
SOLID
  5
351
330
34D
100
AcDbEntity
  8
2
 62
     7
420
 16777215
100
AcDbTrace
 10
50.0010088739
 20
-5.250479077
 30
0.0
 11
50.5090088739
 21
-1.948479077
 31
0.0
 12
49.4930088739
 22
-1.948479077
 32
0.0
 13
49.4930088739
 23
-1.948479077
 33
0.0
  0
LINE
  5
352
330
34D
100
AcDbEntity
  8
2
 62
     7
420
 16777215
100
AcDbLine
 10
25.0010088739
 20
5.249520923
 30
0.0
 11
51.0010088739
 21
5.249520923
 31
0.0
  0
LINE
  5
353
330
34D
100
AcDbEntity
  8
2
 62
     7
420
 16777215
100
AcDbLine
 10
25.0010088739
 20
-5.250479077
 30
0.0
 11
51.0010088739
 21
-5.250479077
 31
0.0
  0
LINE
  5
354
330
34D
100
AcDbEntity
  8
2
 62
     7
420
 16777215
100
AcDbLine
 10
50.0010088739
 20
5.249520923
 30
0.0
 11
50.0010088739
 21
-5.250479077
 31
0.0
  0
LINE
  5
355
330
34D
100
AcDbEntity
  8
2
 62
     7
420
 16777215
100
AcDbLine
 10
50.0010088739
 20
-5.250479077
 30
0.0
 11
50.0010088739
 21
-31.2313479962
 31
0.0
  0
MTEXT
  5
356
330
34D
100
AcDbEntity
  8
2
 62
     7
420
 16777215
100
AcDbMText
 10
45.4892717847
 20
-31.2313479962
 30
0.0
 40
3.5
 41
0.0
 46
0.0
 71
     1
 72
     1
  1
%%c
  7
SLDTEXTSTYLE0
 11
-7.044195017643634E-15
 21
1.0
 31
0.0
 73
     1
 44
1.0
  0
MTEXT
  5
357
330
34D
100
AcDbEntity
  8
2
 62
     7
420
 16777215
100
AcDbMText
 10
45.435799608
 20
-25.9529105978
 30
0.0
 40
3.5
 41
0.0
 46
0.0
 71
     1
 72
     1
  1
10,50
  7
SLDTEXTSTYLE0
 11
-7.044195017643634E-15
 21
1.0
 31
0.0
 73
     1
 44
1.0
  0
ENDBLK
  5
34F
330
34D
100
AcDbEntity
  8
0
100
AcDbBlockEnd
  0
BLOCK
  5
35A
330
359
100
AcDbEntity
  8
0
100
AcDbBlockBegin
  2
_D_5
 70
     0
 10
0.0
 20
0.0
 30
0.0
  3
_D_5
  1

  0
SOLID
  5
35C
330
359
100
AcDbEntity
  8
2
 62
     7
420
 16777215
100
AcDbTrace
 10
-15.9989911261
 20
23.999520923
 30
0.0
 11
-16.5069911261
 21
20.697520923
 31
0.0
 12
-15.4909911261
 22
20.697520923
 32
0.0
 13
-15.4909911261
 23
20.697520923
 33
0.0
  0
SOLID
  5
35D
330
359
100
AcDbEntity
  8
2
 62
     7
420
 16777215
100
AcDbTrace
 10
-15.9989911261
 20
-24.000479077
 30
0.0
 11
-15.4909911261
 21
-20.698479077
 31
0.0
 12
-16.5069911261
 22
-20.698479077
 32
0.0
 13
-16.5069911261
 23
-20.698479077
 33
0.0
  0
LINE
  5
35E
330
359
100
AcDbEntity
  8
2
 62
     7
420
 16777215
100
AcDbLine
 10
4.0010088739
 20
23.999520923
 30
0.0
 11
-16.9989911261
 21
23.999520923
 31
0.0
  0
LINE
  5
35F
330
359
100
AcDbEntity
  8
2
 62
     7
420
 16777215
100
AcDbLine
 10
4.0010088739
 20
-24.000479077
 30
0.0
 11
-16.9989911261
 21
-24.000479077
 31
0.0
  0
LINE
  5
360
330
359
100
AcDbEntity
  8
2
 62
     7
420
 16777215
100
AcDbLine
 10
-15.9989911261
 20
23.999520923
 30
0.0
 11
-15.9989911261
 21
-24.000479077
 31
0.0
  0
MTEXT
  5
361
330
359
100
AcDbEntity
  8
2
 62
     7
420
 16777215
100
AcDbMText
 10
-20.5107282153
 20
-6.6476840572
 30
0.0
 40
3.5
 41
0.0
 46
0.0
 71
     1
 72
     1
  1
%%c
  7
SLDTEXTSTYLE0
 11
-7.044195017643634E-15
 21
1.0
 31
0.0
 73
     1
 44
1.0
  0
MTEXT
  5
362
330
359
100
AcDbEntity
  8
2
 62
     7
420
 16777215
100
AcDbMText
 10
-20.564200392
 20
-1.3692466589
 30
0.0
 40
3.5
 41
0.0
 46
0.0
 71
     1
 72
     1
  1
48
  7
SLDTEXTSTYLE0
 11
-7.044195017643634E-15
 21
1.0
 31
0.0
 73
     1
 44
1.0
  0
ENDBLK
  5
35B
330
359
100
AcDbEntity
  8
0
100
AcDbBlockEnd
  0
ENDSEC
  0
SECTION
  2
ENTITIES
  0
LINE
  5
48
330
1F
100
AcDbEntity
  8
0
  6
SLD-Punktstrich
 62
     7
100
AcDbLine
 10
40.0010088739
 20
-31.4812901281
 30
0.0
 11
40.0010088739
 21
31.4803319741
 31
0.0
  0
LINE
  5
49
330
1F
100
AcDbEntity
  8
0
  6
SLD-Punktstrich
 62
     7
100
AcDbLine
 10
-4.9989911261
 20
-0.000479077
 30
0.0
 11
40.0010088739
 21
-0.000479077
 31
0.0
  0
POINT
  5
4A
330
1F
100
AcDbEntity
  8
1
 62
     4
420
    65535
100
AcDbPoint
 10
-4.9989911261
 20
-0.000479077
 30
0.0
  0
POINT
  5
4B
330
1F
100
AcDbEntity
  8
1
 62
     4
420
    65535
100
AcDbPoint
 10
40.0010088739
 20
-0.000479077
 30
0.0
  0
POINT
  5
4C
330
1F
100
AcDbEntity
  8
1
 62
     4
420
    65535
100
AcDbPoint
 10
40.0010088739
 20
-0.000479077
 30
0.0
  0
POINT
  5
4D
330
1F
100
AcDbEntity
  8
1
 62
     4
420
    65535
100
AcDbPoint
 10
0.0010088739
 20
-0.000479077
 30
0.0
  0
POINT
  5
4E
330
1F
100
AcDbEntity
  8
1
 62
     4
420
    65535
100
AcDbPoint
 10
33.0010088739
 20
-0.000479077
 30
0.0
  0
POINT
  5
4F
330
1F
100
AcDbEntity
  8
1
 62
     4
420
    65535
100
AcDbPoint
 10
39.0010088739
 20
-0.000479077
 30
0.0
  0
POINT
  5
50
330
1F
100
AcDbEntity
  8
1
 62
     4
420
    65535
100
AcDbPoint
 10
0.0010088739
 20
-0.000479077
 30
0.0
  0
POINT
  5
51
330
1F
100
AcDbEntity
  8
1
 62
     4
420
    65535
100
AcDbPoint
 10
40.0010088739
 20
-0.000479077
 30
0.0
  0
POINT
  5
52
330
1F
100
AcDbEntity
  8
1
 62
     4
420
    65535
100
AcDbPoint
 10
40.0010088739
 20
-0.000479077
 30
0.0
  0
POINT
  5
53
330
1F
100
AcDbEntity
  8
1
 62
     4
420
    65535
100
AcDbPoint
 10
40.0010088739
 20
-31.500479077
 30
0.0
  0
LINE
  5
54
330
1F
100
AcDbEntity
  8
1
 62
     4
420
    65535
100
AcDbLine
 10
39.8010088739
 20
-16.2455959428
 30
0.0
 11
39.9986011555
 21
-15.6146558351
 31
0.0
  0
LINE
  5
55
330
1F
100
AcDbEntity
  8
1
 62
     4
420
    65535
100
AcDbLine
 10
39.8010088739
 20
14.1544040572
 30
0.0
 11
39.9986011555
 21
14.7853441649
 31
0.0
  0
LINE
  5
56
330
1F
100
AcDbEntity
  8
1
 62
     4
420
    65535
100
AcDbLine
 10
39.9986011555
 20
15.6136976812
 30
0.0
 11
39.8010088739
 21
16.2446377888
 31
0.0
  0
LINE
  5
57
330
1F
100
AcDbEntity
  8
1
 62
     4
420
    65535
100
AcDbLine
 10
39.9986011555
 20
-14.7863023188
 30
0.0
 11
39.8010088739
 21
-14.1553622112
 31
0.0
  0
ARC
  5
58
330
1F
100
AcDbEntity
  8
1
 62
     4
420
    65535
100
AcDbCircle
 10
5.0010088739
 20
-39.000479077
 30
0.0
 40
15.0
100
AcDbArc
 50
46.8511317039
 51
85.0281284318
  0
ARC
  5
59
330
1F
100
AcDbEntity
  8
1
 62
     4
420
    65535
100
AcDbCircle
 10
5.0010088739
 20
38.999520923
 30
0.0
 40
15.0
100
AcDbArc
 50
274.9718715682
 51
312.8344730404
  0
ARC
  5
5A
330
1F
100
AcDbEntity
  8
1
 62
     4
420
    65535
100
AcDbCircle
 10
5.0010088739
 20
38.999520923
 30
0.0
 40
15.0
100
AcDbArc
 50
312.8344730404
 51
313.1488682961
  0
LINE
  5
5B
330
1F
100
AcDbEntity
  8
1
 62
     4
420
    65535
100
AcDbLine
 10
38.7639111308
 20
-19.0149251076
 30
0.0
 11
39.701516215
 21
-15.7903534669
 31
0.0
  0
LINE
  5
5C
330
1F
100
AcDbEntity
  8
1
 62
     4
420
    65535
100
AcDbLine
 10
39.8010088739
 20
-16.2455959428
 30
0.0
 11
39.9916597177
 21
-15.6294027292
 31
0.0
  0
LINE
  5
5D
330
1F
100
AcDbEntity
  8
1
 62
     4
420
    65535
100
AcDbLine
 10
38.8680383426
 20
-19.0677795781
 30
0.0
 11
39.8010088739
 21
-16.2455959428
 31
0.0
  0
LINE
  5
5E
330
1F
100
AcDbEntity
  8
1
 62
     4
420
    65535
100
AcDbLine
 10
32.6984222825
 20
10.6031107615
 30
0.0
 11
32.6984222825
 21
11.149520923
 31
0.0
  0
LINE
  5
5F
330
1F
100
AcDbEntity
  8
1
 62
     4
420
    65535
100
AcDbLine
 10
32.2529612128
 20
7.664959079
 30
0.0
 11
32.6984222825
 21
10.6031107615
 31
0.0
  0
LINE
  5
60
330
1F
100
AcDbEntity
  8
1
 62
     4
420
    65535
100
AcDbLine
 10
32.2010088739
 20
7.664959079
 30
0.0
 11
32.2529612128
 21
7.664959079
 31
0.0
  0
LINE
  5
61
330
1F
100
AcDbEntity
  8
1
 62
     4
420
    65535
100
AcDbLine
 10
32.6984222825
 20
10.6031107615
 30
0.0
 11
32.8398436387
 21
11.1788102449
 31
0.0
  0
LINE
  5
62
330
1F
100
AcDbEntity
  8
1
 62
     4
420
    65535
100
AcDbLine
 10
39.8010088739
 20
14.1544040572
 30
0.0
 11
39.9424302301
 21
14.7301035406
 31
0.0
  0
LINE
  5
63
330
1F
100
AcDbEntity
  8
1
 62
     4
420
    65535
100
AcDbLine
 10
38.7255707179
 20
10.9012638316
 30
0.0
 11
39.8010088739
 21
14.1544040572
 31
0.0
  0
LINE
  5
64
330
1F
100
AcDbEntity
  8
1
 62
     4
420
    65535
100
AcDbLine
 10
32.2529612128
 20
7.664959079
 30
0.0
 11
38.7255707179
 21
10.9012638316
 31
0.0
  0
LINE
  5
65
330
1F
100
AcDbEntity
  8
1
 62
     4
420
    65535
100
AcDbLine
 10
23.8010088739
 20
31.1969343316
 30
0.0
 11
23.8010088739
 21
30.6570719205
 31
0.0
  0
ARC
  5
66
330
1F
100
AcDbEntity
  8
1
 62
     4
420
    65535
100
AcDbCircle
 10
24.0010088739
 20
31.1969343316
 30
0.0
 40
0.1999999999999946
100
AcDbArc
 50
135.0
 51
180.0
  0
LINE
  5
67
330
1F
100
AcDbEntity
  8
1
 62
     4
420
    65535
100
AcDbLine
 10
30.9621741091
 20
38.4409422793
 30
0.0
 11
23.8595875177
 21
31.3383556879
 31
0.0
  0
ARC
  5
68
330
1F
100
AcDbEntity
  8
1
 62
     4
420
    65535
100
AcDbCircle
 10
31.1035954653
 20
38.299520923
 30
0.0
 40
0.2000000000000028
100
AcDbArc
 50
90.0
 51
135.0
  0
LINE
  5
69
330
1F
100
AcDbEntity
  8
1
 62
     4
420
    65535
100
AcDbLine
 10
32.6984222825
 20
38.499520923
 30
0.0
 11
31.1035954653
 21
38.499520923
 31
0.0
  0
ARC
  5
6A
330
1F
100
AcDbEntity
  8
1
 62
     4
420
    65535
100
AcDbCircle
 10
32.6984222825
 20
38.299520923
 30
0.0
 40
0.2000000000000028
100
AcDbArc
 50
45.0
 51
90.0
  0
LINE
  5
6B
330
1F
100
AcDbEntity
  8
1
 62
     4
420
    65535
100
AcDbLine
 10
39.9424302301
 20
31.3383556879
 30
0.0
 11
32.8398436387
 21
38.4409422793
 31
0.0
  0
ARC
  5
6C
330
1F
100
AcDbEntity
  8
1
 62
     4
420
    65535
100
AcDbCircle
 10
39.8010088739
 20
31.1969343316
 30
0.0
 40
0.2000000000000172
100
AcDbArc
 50
0.0
 51
45.0
  0
LINE
  5
6D
330
1F
100
AcDbEntity
  8
1
 62
     4
420
    65535
100
AcDbLine
 10
40.0010088739
 20
29.6021075144
 30
0.0
 11
40.0010088739
 21
31.1969343316
 31
0.0
  0
ARC
  5
6E
330
1F
100
AcDbEntity
  8
1
 62
     4
420
    65535
100
AcDbCircle
 10
39.8010088739
 20
29.6021075144
 30
0.0
 40
0.2000000000000099
100
AcDbArc
 50
315.0
 51
0.0
  0
LINE
  5
6F
330
1F
100
AcDbEntity
  8
1
 62
     4
420
    65535
100
AcDbLine
 10
38.743646257
 20
28.2619021851
 30
0.0
 11
39.9424302301
 21
29.4606861582
 31
0.0
  0
ARC
  5
70
330
1F
100
AcDbEntity
  8
1
 62
     4
420
    65535
100
AcDbCircle
 10
31.9010088739
 20
30.399520923
 30
0.0
 40
3.738163490354232
100
AcDbArc
 50
90.0
 51
172.4208102238
  0
ARC
  5
71
330
1F
100
AcDbEntity
  8
1
 62
     4
420
    65535
100
AcDbCircle
 10
31.9010088739
 20
30.399520923
 30
0.0
 40
3.738163490354236
100
AcDbArc
 50
353.039398777
 51
90.0
  0
ARC
  5
72
330
1F
100
AcDbEntity
  8
1
 62
     4
420
    65535
100
AcDbCircle
 10
31.9010088739
 20
30.399520923
 30
0.0
 40
3.650000000000003
100
AcDbArc
 50
90.0
 51
172.1296900684
  0
ARC
  5
73
330
1F
100
AcDbEntity
  8
1
 62
     4
420
    65535
100
AcDbCircle
 10
31.9010088739
 20
30.399520923
 30
0.0
 40
3.650000000000004
100
AcDbArc
 50
353.6509285384
 51
90.0
  0
ARC
  5
74
330
1F
100
AcDbEntity
  8
1
 62
     4
420
    65535
100
AcDbCircle
 10
31.9010088739
 20
30.399520923
 30
0.0
 40
2.75
100
AcDbArc
 50
90.0
 51
168.7711173437
  0
ARC
  5
75
330
1F
100
AcDbEntity
  8
1
 62
     4
420
    65535
100
AcDbCircle
 10
31.9010088739
 20
30.399520923
 30
0.0
 40
2.75
100
AcDbArc
 50
1.1018556501
 51
90.0
  0
LINE
  5
76
330
1F
100
AcDbEntity
  8
1
 62
     4
420
    65535
100
AcDbLine
 10
31.1035954653
 20
11.149520923
 30
0.0
 11
32.6984222825
 21
11.149520923
 31
0.0
  0
ARC
  5
77
330
1F
100
AcDbEntity
  8
1
 62
     4
420
    65535
100
AcDbCircle
 10
31.0971138415
 20
11.4742908919
 30
0.0
 40
0.3248346412399456
100
AcDbArc
 50
245.4548274536
 51
271.1433335301
  0
LINE
  5
78
330
1F
100
AcDbEntity
  8
1
 62
     4
420
    65535
100
AcDbLine
 10
23.8595875177
 20
14.7301035406
 30
0.0
 11
30.9621741091
 21
11.1788102449
 31
0.0
  0
ARC
  5
79
330
1F
100
AcDbEntity
  8
1
 62
     4
420
    65535
100
AcDbCircle
 10
23.8886238894
 20
14.8137774664
 30
0.0
 40
0.0885688248703116
100
AcDbArc
 50
188.4162473377
 51
250.8622971378
  0
LINE
  5
7A
330
1F
100
AcDbEntity
  8
1
 62
     4
420
    65535
100
AcDbLine
 10
23.8010088739
 20
15.5982276273
 30
0.0
 11
23.8010088739
 21
14.8008142187
 31
0.0
  0
ARC
  5
7B
330
1F
100
AcDbEntity
  8
1
 62
     4
420
    65535
100
AcDbCircle
 10
23.8886238894
 20
15.5852643797
 30
0.0
 40
0.0885688248702804
100
AcDbArc
 50
109.1377028622
 51
171.5837526623
  0
LINE
  5
7C
330
1F
100
AcDbEntity
  8
1
 62
     4
420
    65535
100
AcDbLine
 10
30.9621741091
 20
19.2202316011
 30
0.0
 11
23.8595875177
 21
15.6689383054
 31
0.0
  0
ARC
  5
7D
330
1F
100
AcDbEntity
  8
1
 62
     4
420
    65535
100
AcDbCircle
 10
31.0971138415
 20
18.9247509541
 30
0.0
 40
0.324834641239995
100
AcDbArc
 50
88.8566664699
 51
114.5451725464
  0
LINE
  5
7E
330
1F
100
AcDbEntity
  8
1
 62
     4
420
    65535
100
AcDbLine
 10
32.6984222825
 20
19.249520923
 30
0.0
 11
31.1035954653
 21
19.249520923
 31
0.0
  0
ARC
  5
7F
330
1F
100
AcDbEntity
  8
1
 62
     4
420
    65535
100
AcDbCircle
 10
32.7049039063
 20
18.9247509541
 30
0.0
 40
0.3248346412399468
100
AcDbArc
 50
65.4548274536
 51
91.1433335301
  0
LINE
  5
80
330
1F
100
AcDbEntity
  8
1
 62
     4
420
    65535
100
AcDbLine
 10
39.9424302301
 20
15.6689383054
 30
0.0
 11
32.8398436387
 21
19.2202316011
 31
0.0
  0
ARC
  5
81
330
1F
100
AcDbEntity
  8
1
 62
     4
420
    65535
100
AcDbCircle
 10
39.9133938583
 20
15.5852643797
 30
0.0
 40
0.0885688248703488
100
AcDbArc
 50
8.4162473377
 51
70.8622971378
  0
LINE
  5
82
330
1F
100
AcDbEntity
  8
1
 62
     4
420
    65535
100
AcDbLine
 10
40.0010088739
 20
14.8008142187
 30
0.0
 11
40.0010088739
 21
15.5982276273
 31
0.0
  0
ARC
  5
83
330
1F
100
AcDbEntity
  8
1
 62
     4
420
    65535
100
AcDbCircle
 10
39.9133938583
 20
14.8137774664
 30
0.0
 40
0.0885688248703301
100
AcDbArc
 50
289.1377028622
 51
351.5837526623
  0
LINE
  5
84
330
1F
100
AcDbEntity
  8
1
 62
     4
420
    65535
100
AcDbLine
 10
32.8398436387
 20
11.1788102449
 30
0.0
 11
39.9424302301
 21
14.7301035406
 31
0.0
  0
ARC
  5
85
330
1F
100
AcDbEntity
  8
1
 62
     4
420
    65535
100
AcDbCircle
 10
32.7049039063
 20
11.4742908919
 30
0.0
 40
0.3248346412400357
100
AcDbArc
 50
268.8566664699
 51
294.5451725464
  0
LWPOLYLINE
  5
86
330
1F
100
AcDbEntity
  8
1
 62
     4
420
    65535
100
AcDbPolyline
 90
       44
 70
   128
 43
0.0
 10
31.9010088739
 20
17.0686026682
 10
31.3567279045
 20
17.048684552
 10
30.824047339
 20
16.9893547235
 10
30.3143203389
 20
16.8918776949
 10
29.8384108502
 20
16.75833102
 10
29.4064620574
 20
16.5915610141
 10
29.027680199
 20
16.3951220905
 10
28.7101383528
 20
16.1732010038
 10
28.460604372
 20
15.9305276165
 10
28.28439664
 20
15.6722740908
 10
28.1852707189
 20
15.4039446521
 10
28.1653393054
 20
15.1312582764
 10
28.2250272031
 20
14.8600268006
 10
28.3630622681
 20
14.5960310526
 10
28.5765025225
 20
14.3448976434
 10
28.860798858
 20
14.1119790457
 10
29.2098919917
 20
13.9022395149
 10
29.6163416096
 20
13.7201492851
 10
30.0714849437
 20
13.5695892934
 10
30.565621404
 20
13.4537684645
 10
31.0882193298
 20
13.3751553184
 10
31.6281404537
 20
13.3354253578
 10
32.1738772941
 20
13.3354253578
 10
32.713798418
 20
13.3751553184
 10
33.2363963438
 20
13.4537684645
 10
33.7305328041
 20
13.5695892934
 10
34.1856761382
 20
13.7201492851
 10
34.5921257561
 20
13.9022395149
 10
34.9412188898
 20
14.1119790457
 10
35.2255152253
 20
14.3448976434
 10
35.4389554797
 20
14.5960310526
 10
35.5769905447
 20
14.8600268006
 10
35.6366784424
 20
15.1312582764
 10
35.6167470289
 20
15.4039446521
 10
35.5176211077
 20
15.6722740908
 10
35.3414133758
 20
15.9305276165
 10
35.091879395
 20
16.1732010038
 10
34.7743375488
 20
16.3951220905
 10
34.3955556904
 20
16.5915610141
 10
33.9636068976
 20
16.75833102
 10
33.4876974089
 20
16.8918776949
 10
32.9779704087
 20
16.9893547235
 10
32.4452898433
 20
17.048684552
 10
31.9010088739
 20
17.0686026682
  0
LINE
  5
87
330
1F
100
AcDbEntity
  8
1
 62
     4
420
    65535
100
AcDbLine
 10
32.6984222825
 20
19.7959310845
 30
0.0
 11
32.6984222825
 21
19.249520923
 31
0.0
  0
LINE
  5
88
330
1F
100
AcDbEntity
  8
1
 62
     4
420
    65535
100
AcDbLine
 10
32.6984222825
 20
19.7959310845
 30
0.0
 11
32.8398436387
 21
19.2202316011
 31
0.0
  0
LINE
  5
89
330
1F
100
AcDbEntity
  8
1
 62
     4
420
    65535
100
AcDbLine
 10
31.1035954653
 20
19.7959310845
 30
0.0
 11
30.9621741091
 21
19.2202316011
 31
0.0
  0
LINE
  5
8A
330
1F
100
AcDbEntity
  8
1
 62
     4
420
    65535
100
AcDbLine
 10
31.1035954653
 20
19.7959310845
 30
0.0
 11
31.1035954653
 21
19.249520923
 31
0.0
  0
LINE
  5
8B
330
1F
100
AcDbEntity
  8
1
 62
     4
420
    65535
100
AcDbLine
 10
31.549056535
 20
22.7340827671
 30
0.0
 11
31.1035954653
 21
19.7959310845
 31
0.0
  0
LINE
  5
8C
330
1F
100
AcDbEntity
  8
1
 62
     4
420
    65535
100
AcDbLine
 10
32.2529612128
 20
22.7340827671
 30
0.0
 11
31.549056535
 21
22.7340827671
 31
0.0
  0
LINE
  5
8D
330
1F
100
AcDbEntity
  8
1
 62
     4
420
    65535
100
AcDbLine
 10
32.2529612128
 20
22.7340827671
 30
0.0
 11
32.6984222825
 21
19.7959310845
 31
0.0
  0
LINE
  5
8E
330
1F
100
AcDbEntity
  8
1
 62
     4
420
    65535
100
AcDbLine
 10
31.549056535
 20
22.7340827671
 30
0.0
 11
29.7475695837
 21
21.8333392914
 31
0.0
  0
LINE
  5
8F
330
1F
100
AcDbEntity
  8
1
 62
     4
420
    65535
100
AcDbLine
 10
38.7255707179
 20
19.4977780145
 30
0.0
 11
32.2529612128
 21
22.7340827671
 31
0.0
  0
LINE
  5
90
330
1F
100
AcDbEntity
  8
1
 62
     4
420
    65535
100
AcDbLine
 10
38.7255707179
 20
19.4977780145
 30
0.0
 11
39.8010088739
 21
16.2446377888
 31
0.0
  0
LINE
  5
91
330
1F
100
AcDbEntity
  8
1
 62
     4
420
    65535
100
AcDbLine
 10
39.8010088739
 20
16.2446377888
 30
0.0
 11
39.9424302301
 21
15.6689383054
 31
0.0
  0
LWPOLYLINE
  5
92
330
1F
100
AcDbEntity
  8
1
 62
     4
420
    65535
100
AcDbPolyline
 90
       23
 70
   128
 43
0.0
 10
28.2514531297
 20
15.6040605227
 10
28.2612150142
 20
15.4961512041
 10
28.3425219944
 20
15.2264329204
 10
28.5033196913
 20
14.9657862554
 10
28.7400161501
 20
14.7200336249
 10
29.0473239629
 20
14.4946647365
 10
29.418378381
 20
14.2947139588
 10
29.844890662
 20
14.1246478618
 10
30.3173332261
 20
13.988265441
 10
30.8251524873
 20
13.8886132544
 10
31.3570046024
 20
13.8279173671
 10
31.9010088739
 20
13.8075336249
 10
32.4450131454
 20
13.8279173671
 10
32.9768652605
 20
13.8886132544
 10
33.4846845217
 20
13.988265441
 10
33.9571270858
 20
14.1246478618
 10
34.3836393668
 20
14.2947139588
 10
34.7546937849
 20
14.4946647365
 10
35.0620015977
 20
14.7200336249
 10
35.2986980564
 20
14.9657862554
 10
35.4594957534
 20
15.2264329204
 10
35.5408027336
 20
15.4961512041
 10
35.5505646181
 20
15.6040605227
  0
LINE
  5
93
330
1F
100
AcDbEntity
  8
1
 62
     4
420
    65535
100
AcDbLine
 10
31.1035954653
 20
-18.5040689155
 30
0.0
 11
31.1035954653
 21
-19.250479077
 31
0.0
  0
LINE
  5
94
330
1F
100
AcDbEntity
  8
1
 62
     4
420
    65535
100
AcDbLine
 10
31.549056535
 20
-14.490479077
 30
0.0
 11
31.1035954653
 21
-18.5040689155
 31
0.0
  0
LINE
  5
95
330
1F
100
AcDbEntity
  8
1
 62
     4
420
    65535
100
AcDbLine
 10
32.2529612128
 20
-14.490479077
 30
0.0
 11
31.549056535
 21
-14.490479077
 31
0.0
  0
LINE
  5
96
330
1F
100
AcDbEntity
  8
1
 62
     4
420
    65535
100
AcDbLine
 10
32.2529612128
 20
-14.490479077
 30
0.0
 11
32.6984222825
 21
-18.5040689155
 31
0.0
  0
LINE
  5
97
330
1F
100
AcDbEntity
  8
1
 62
     4
420
    65535
100
AcDbLine
 10
32.6984222825
 20
-18.5040689155
 30
0.0
 11
32.6984222825
 21
-19.250479077
 31
0.0
  0
LINE
  5
98
330
1F
100
AcDbEntity
  8
1
 62
     4
420
    65535
100
AcDbLine
 10
32.6984222825
 20
-19.250479077
 30
0.0
 11
31.1035954653
 21
-19.250479077
 31
0.0
  0
LINE
  5
99
330
1F
100
AcDbEntity
  8
1
 62
     4
420
    65535
100
AcDbLine
 10
32.6984222825
 20
-18.5040689155
 30
0.0
 11
32.8398436387
 21
-19.2211897551
 31
0.0
  0
LINE
  5
9A
330
1F
100
AcDbEntity
  8
1
 62
     4
420
    65535
100
AcDbLine
 10
32.3312594493
 20
-14.4513299587
 30
0.0
 11
32.2529612128
 21
-14.490479077
 31
0.0
  0
LINE
  5
9B
330
1F
100
AcDbEntity
  8
1
 62
     4
420
    65535
100
AcDbLine
 10
38.8556631265
 20
-11.7015826188
 30
0.0
 11
39.8010088739
 21
-14.9527756198
 31
0.0
  0
LINE
  5
9C
330
1F
100
AcDbEntity
  8
1
 62
     4
420
    65535
100
AcDbLine
 10
39.8010088739
 20
-14.9527756198
 30
0.0
 11
39.9424302301
 21
-15.6698964594
 31
0.0
  0
LINE
  5
9D
330
1F
100
AcDbEntity
  8
1
 62
     4
420
    65535
100
AcDbLine
 10
39.9424302301
 20
-15.6698964594
 30
0.0
 11
32.8398436387
 21
-19.2211897551
 31
0.0
  0
LINE
  5
9E
330
1F
100
AcDbEntity
  8
1
 62
     4
420
    65535
100
AcDbLine
 10
31.549056535
 20
-14.490479077
 30
0.0
 11
31.4707582985
 21
-14.4513299587
 31
0.0
  0
LINE
  5
9F
330
1F
100
AcDbEntity
  8
1
 62
     4
420
    65535
100
AcDbLine
 10
31.1035954653
 20
-18.5040689155
 30
0.0
 11
30.9621741091
 21
-19.2211897551
 31
0.0
  0
LINE
  5
A0
330
1F
100
AcDbEntity
  8
1
 62
     4
420
    65535
100
AcDbLine
 10
30.9621741091
 20
-19.2211897551
 30
0.0
 11
29.9610303761
 21
-18.7206178886
 31
0.0
  0
ARC
  5
A1
330
1F
100
AcDbEntity
  8
1
 62
     4
420
    65535
100
AcDbCircle
 10
31.0971138415
 20
-18.9257091081
 30
0.0
 40
0.3248346412397913
100
AcDbArc
 50
245.4548274536
 51
271.1433335301
  0
ARC
  5
A2
330
1F
100
AcDbEntity
  8
1
 62
     4
420
    65535
100
AcDbCircle
 10
32.7049039063
 20
-18.9257091081
 30
0.0
 40
0.3248346412400109
100
AcDbArc
 50
268.8566664699
 51
294.5451725464
  0
LINE
  5
A3
330
1F
100
AcDbEntity
  8
1
 62
     4
420
    65535
100
AcDbLine
 10
39.8010088739
 20
-14.9527756198
 30
0.0
 11
40.0010088739
 21
-15.5991857813
 31
0.0
  0
LINE
  5
A4
330
1F
100
AcDbEntity
  8
1
 62
     4
420
    65535
100
AcDbLine
 10
38.9697802608
 20
-11.6409421835
 30
0.0
 11
39.8010088739
 21
-14.1553622112
 31
0.0
  0
LINE
  5
A5
330
1F
100
AcDbEntity
  8
1
 62
     4
420
    65535
100
AcDbLine
 10
39.8010088739
 20
-14.1553622112
 30
0.0
 11
40.0010088739
 21
-14.8017723727
 31
0.0
  0
LINE
  5
A6
330
1F
100
AcDbEntity
  8
1
 62
     4
420
    65535
100
AcDbLine
 10
40.0010088739
 20
-14.8017723727
 30
0.0
 11
40.0010088739
 21
-15.5991857813
 31
0.0
  0
ARC
  5
A7
330
1F
100
AcDbEntity
  8
1
 62
     4
420
    65535
100
AcDbCircle
 10
39.9133938583
 20
-15.5862225336
 30
0.0
 40
0.0885688248703488
100
AcDbArc
 50
289.1377028622
 51
351.5837526623
  0
LWPOLYLINE
  5
A8
330
1F
100
AcDbEntity
  8
1
 62
     4
420
    65535
100
AcDbPolyline
 90
        3
 70
   128
 43
0.0
 10
39.9986011555
 20
-14.7863023188
 10
40.0000458192
 20
-14.7919706586
 10
40.0010088739
 20
-14.8017723727
  0
LINE
  5
A9
330
1F
100
AcDbEntity
  8
1
 62
     4
420
    65535
100
AcDbLine
 10
32.3312594493
 20
-37.1467426845
 30
0.0
 11
32.2529612128
 21
-37.225040921
 31
0.0
  0
LINE
  5
AA
330
1F
100
AcDbEntity
  8
1
 62
     4
420
    65535
100
AcDbLine
 10
32.2529612128
 20
-37.225040921
 30
0.0
 11
31.549056535
 21
-37.225040921
 31
0.0
  0
LINE
  5
AB
330
1F
100
AcDbEntity
  8
1
 62
     4
420
    65535
100
AcDbLine
 10
31.549056535
 20
-37.225040921
 30
0.0
 11
31.4707582985
 21
-37.1467426845
 31
0.0
  0
LINE
  5
AC
330
1F
100
AcDbEntity
  8
1
 62
     4
420
    65535
100
AcDbLine
 10
31.1035954653
 20
-38.300479077
 30
0.0
 11
31.1035954653
 21
-38.500479077
 31
0.0
  0
LINE
  5
AD
330
1F
100
AcDbEntity
  8
1
 62
     4
420
    65535
100
AcDbLine
 10
31.549056535
 20
-37.225040921
 30
0.0
 11
31.1035954653
 21
-38.300479077
 31
0.0
  0
LINE
  5
AE
330
1F
100
AcDbEntity
  8
1
 62
     4
420
    65535
100
AcDbLine
 10
32.2529612128
 20
-37.225040921
 30
0.0
 11
32.6984222825
 21
-38.300479077
 31
0.0
  0
LINE
  5
AF
330
1F
100
AcDbEntity
  8
1
 62
     4
420
    65535
100
AcDbLine
 10
32.6984222825
 20
-38.300479077
 30
0.0
 11
32.6984222825
 21
-38.500479077
 31
0.0
  0
LINE
  5
B0
330
1F
100
AcDbEntity
  8
1
 62
     4
420
    65535
100
AcDbLine
 10
32.6984222825
 20
-38.500479077
 30
0.0
 11
31.1035954653
 21
-38.500479077
 31
0.0
  0
LINE
  5
B1
330
1F
100
AcDbEntity
  8
1
 62
     4
420
    65535
100
AcDbLine
 10
31.1035954653
 20
-38.300479077
 30
0.0
 11
30.9621741091
 21
-38.4419004332
 31
0.0
  0
LINE
  5
B2
330
1F
100
AcDbEntity
  8
1
 62
     4
420
    65535
100
AcDbLine
 10
30.9621741091
 20
-38.4419004332
 30
0.0
 11
29.988901579
 21
-37.4686279032
 31
0.0
  0
LINE
  5
B3
330
1F
100
AcDbEntity
  8
1
 62
     4
420
    65535
100
AcDbLine
 10
32.6984222825
 20
-38.300479077
 30
0.0
 11
32.8398436387
 21
-38.4419004332
 31
0.0
  0
LINE
  5
B4
330
1F
100
AcDbEntity
  8
1
 62
     4
420
    65535
100
AcDbLine
 10
39.0010088739
 20
-30.8665216357
 30
0.0
 11
39.8010088739
 21
-31.1978924856
 31
0.0
  0
LINE
  5
B5
330
1F
100
AcDbEntity
  8
1
 62
     4
420
    65535
100
AcDbLine
 10
39.8010088739
 20
-31.1978924856
 30
0.0
 11
39.9424302301
 21
-31.3393138418
 31
0.0
  0
LINE
  5
B6
330
1F
100
AcDbEntity
  8
1
 62
     4
420
    65535
100
AcDbLine
 10
39.9424302301
 20
-31.3393138418
 30
0.0
 11
32.8398436387
 21
-38.4419004332
 31
0.0
  0
LINE
  5
B7
330
1F
100
AcDbEntity
  8
1
 62
     4
420
    65535
100
AcDbLine
 10
39.8010088739
 20
-29.6030656684
 30
0.0
 11
39.9424302301
 21
-29.4616443121
 31
0.0
  0
LINE
  5
B8
330
1F
100
AcDbEntity
  8
1
 62
     4
420
    65535
100
AcDbLine
 10
39.0010088739
 20
-29.9344365183
 30
0.0
 11
39.8010088739
 21
-29.6030656684
 31
0.0
  0
LINE
  5
B9
330
1F
100
AcDbEntity
  8
1
 62
     4
420
    65535
100
AcDbLine
 10
39.0010088739
 20
-28.5202229559
 30
0.0
 11
39.9424302301
 21
-29.4616443121
 31
0.0
  0
LINE
  5
BA
330
1F
100
AcDbEntity
  8
1
 62
     4
420
    65535
100
AcDbLine
 10
39.8010088739
 20
-31.1978924856
 30
0.0
 11
40.0010088739
 21
-31.1978924856
 31
0.0
  0
LINE
  5
BB
330
1F
100
AcDbEntity
  8
1
 62
     4
420
    65535
100
AcDbLine
 10
39.8010088739
 20
-29.6030656684
 30
0.0
 11
40.0010088739
 21
-29.6030656684
 31
0.0
  0
LINE
  5
BC
330
1F
100
AcDbEntity
  8
1
 62
     4
420
    65535
100
AcDbLine
 10
40.0010088739
 20
-29.6030656684
 30
0.0
 11
40.0010088739
 21
-31.1978924856
 31
0.0
  0
ARC
  5
BD
330
1F
100
AcDbEntity
  8
1
 62
     4
420
    65535
100
AcDbCircle
 10
31.1035954653
 20
-38.300479077
 30
0.0
 40
0.2000000000000099
100
AcDbArc
 50
225.0
 51
270.0
  0
ARC
  5
BE
330
1F
100
AcDbEntity
  8
1
 62
     4
420
    65535
100
AcDbCircle
 10
39.8010088739
 20
-29.6030656684
 30
0.0
 40
0.2000000000000099
100
AcDbArc
 50
0.0
 51
45.0
  0
ARC
  5
BF
330
1F
100
AcDbEntity
  8
1
 62
     4
420
    65535
100
AcDbCircle
 10
32.6984222825
 20
-38.300479077
 30
0.0
 40
0.2000000000000099
100
AcDbArc
 50
270.0
 51
315.0
  0
ARC
  5
C0
330
1F
100
AcDbEntity
  8
1
 62
     4
420
    65535
100
AcDbCircle
 10
39.8010088739
 20
-31.1978924856
 30
0.0
 40
0.2000000000000172
100
AcDbArc
 50
315.0
 51
0.0
  0
SPLINE
  5
C1
330
1F
100
AcDbEntity
  8
1
 62
     4
420
    65535
100
AcDbSpline
210
0.0
220
0.0
230
1.0
 70
     8
 71
     3
 72
    18
 73
    14
 74
     0
 42
0.00000001
 43
0.00000001
 12
1.0
 22
0.0
 32
0.0
 13
1.0
 23
0.0
 33
0.0
 40
0.0
 40
0.0
 40
0.0
 40
0.0
 40
0.2500000000000004
 40
0.2500000000000004
 40
0.3750000000000003
 40
0.3750000000000003
 40
0.5000000000000002
 40
0.5000000000000002
 40
0.6250000000000001
 40
0.6250000000000001
 40
0.75
 40
0.75
 40
1.0
 40
1.0
 40
1.0
 40
1.0
 10
29.00100887389477
 20
-2.706617434740456
 30
0.0
 10
27.91142823014433
 20
-2.633456949447368
 30
0.0
 10
26.88879810630381
 20
-2.366608861996144
 30
0.0
 10
25.43345030829915
 20
-1.753576904800744
 30
0.0
 10
24.97270718512374
 20
-1.517997065312782
 30
0.0
 10
24.09736865368433
 20
-1.003418807807811
 30
0.0
 10
23.68148065965325
 20
-0.7237510710326456
 30
0.0
 10
22.88635412328386
 20
-0.1301341298952935
 30
0.0
 10
22.50554501938143
 20
0.1854461505193351
 30
0.0
 10
21.78785963929493
 20
0.8324227311367962
 30
0.0
 10
21.4499014586594
 20
1.164370751792645
 30
0.0
 10
20.4890325406331
 20
2.177116000213678
 30
0.0
 10
19.91851836752267
 20
2.87433155390063
 30
0.0
 10
19.40438728545131
 20
3.580217206475071
 30
0.0
  0
SPLINE
  5
C2
330
1F
100
AcDbEntity
  8
1
 62
     4
420
    65535
100
AcDbSpline
210
0.0
220
0.0
230
1.0
 70
     8
 71
     3
 72
     8
 73
     4
 74
     0
 42
0.00000001
 43
0.00000001
 12
1.0
 22
0.0
 32
0.0
 13
1.0
 23
0.0
 33
0.0
 40
0.0
 40
0.0
 40
0.0
 40
0.0
 40
1.0
 40
1.0
 40
1.0
 40
1.0
 10
19.40438728545131
 20
3.580217206475067
 30
0.0
 10
18.19553813451529
 20
5.239928711048313
 30
0.0
 10
17.08735137897537
 20
6.924703183031506
 30
0.0
 10
16.09763046233823
 20
8.596743387641654
 30
0.0
  0
SPLINE
  5
C3
330
1F
100
AcDbEntity
  8
1
 62
     4
420
    65535
100
AcDbSpline
210
0.0
220
0.0
230
1.0
 70
     8
 71
     3
 72
     8
 73
     4
 74
     0
 42
0.00000001
 43
0.00000001
 12
1.0
 22
0.0
 32
0.0
 13
1.0
 23
0.0
 33
0.0
 40
0.0
 40
0.0
 40
0.0
 40
0.0
 40
1.0
 40
1.0
 40
1.0
 40
1.0
 10
16.09763046233823
 20
8.596743387641652
 30
0.0
 10
15.4869047573754
 20
9.628506903518842
 30
0.0
 10
14.86060144783505
 20
10.66873222111465
 30
0.0
 10
14.25497044039991
 20
11.70692882096998
 30
0.0
  0
ARC
  5
C4
330
1F
100
AcDbEntity
  8
1
 62
     4
420
    65535
100
AcDbCircle
 10
28.5848744353
 20
51.7437400991
 30
0.0
 40
42.52402151517916
100
AcDbArc
 50
250.306786352
 51
270.5606978539
  0
LINE
  5
C5
330
1F
100
AcDbEntity
  8
1
 62
     4
420
    65535
100
AcDbLine
 10
29.0010088739
 20
-2.7066174347
 30
0.0
 11
29.0010088739
 21
9.2217547509
 31
0.0
  0
ARC
  5
C6
330
1F
100
AcDbEntity
  8
1
 62
     4
420
    65535
100
AcDbCircle
 10
29.8188968064
 20
4.6462105813
 30
0.0
 40
23.36726074433759
100
AcDbArc
 50
243.5326298196
 51
270.3485091375
  0
LINE
  5
C7
330
1F
100
AcDbEntity
  8
1
 62
     4
420
    65535
100
AcDbLine
 10
19.4043872855
 20
-16.2718884273
 30
0.0
 11
19.4043872855
 21
3.5802172065
 31
0.0
  0
SPLINE
  5
C8
330
1F
100
AcDbEntity
  8
1
 62
     4
420
    65535
100
AcDbSpline
210
0.0
220
0.0
230
1.0
 70
     8
 71
     3
 72
     8
 73
     4
 74
     0
 42
0.00000001
 43
0.00000001
 12
1.0
 22
0.0
 32
0.0
 13
1.0
 23
0.0
 33
0.0
 40
0.0
 40
0.0
 40
0.0
 40
0.0
 40
1.0
 40
1.0
 40
1.0
 40
1.0
 10
30.50100887389476
 20
-2.756832086941188
 30
0.0
 10
29.99930567198713
 20
-2.756832086941188
 30
0.0
 10
29.49930749369061
 20
-2.740075966749291
 30
0.0
 10
29.00100887389477
 20
-2.706617434740449
 30
0.0
  0
LINE
  5
C9
330
1F
100
AcDbEntity
  8
1
 62
     4
420
    65535
100
AcDbLine
 10
30.5010088739
 20
-14.4513299587
 30
0.0
 11
30.5010088739
 21
-2.7568320869
 31
0.0
  0
SPLINE
  5
CA
330
1F
100
AcDbEntity
  8
1
 62
     4
420
    65535
100
AcDbSpline
210
0.0
220
0.0
230
1.0
 70
     8
 71
     3
 72
     8
 73
     4
 74
     0
 42
0.00000001
 43
0.00000001
 12
1.0
 22
0.0
 32
0.0
 13
1.0
 23
0.0
 33
0.0
 40
0.0
 40
0.0
 40
0.0
 40
0.0
 40
1.0
 40
1.0
 40
1.0
 40
1.0
 10
30.50100887389477
 20
-14.45132995872459
 30
0.0
 10
30.21333349738264
 20
-14.45132995872459
 30
0.0
 10
29.9270787698262
 20
-14.44716205628567
 30
0.0
 10
29.64221036403945
 20
-14.43892696056724
 30
0.0
  0
SPLINE
  5
CB
330
1F
100
AcDbEntity
  8
1
 62
     4
420
    65535
100
AcDbSpline
210
0.0
220
0.0
230
1.0
 70
     8
 71
     3
 72
     8
 73
     4
 74
     0
 42
0.00000001
 43
0.00000001
 12
1.0
 22
0.0
 32
0.0
 13
1.0
 23
0.0
 33
0.0
 40
0.0
 40
0.0
 40
0.0
 40
0.0
 40
1.0
 40
1.0
 40
1.0
 40
1.0
 10
29.64221036403946
 20
-14.43892696056724
 30
0.0
 10
29.85489313944288
 20
-15.8986377580106
 30
0.0
 10
29.96103037606812
 20
-17.32582652387919
 30
0.0
 10
29.96103037606812
 20
-18.7206178885955
 30
0.0
  0
LINE
  5
CC
330
1F
100
AcDbEntity
  8
1
 62
     4
420
    65535
100
AcDbLine
 10
32.2010088739
 20
9.2217547509
 30
0.0
 11
32.2010088739
 21
6.4007641691
 31
0.0
  0
LINE
  5
CD
330
1F
100
AcDbEntity
  8
1
 62
     4
420
    65535
100
AcDbLine
 10
32.2010088739
 20
6.4007641691
 30
0.0
 11
33.7010088739
 21
6.4007641691
 31
0.0
  0
SPLINE
  5
CE
330
1F
100
AcDbEntity
  8
1
 62
     4
420
    65535
100
AcDbSpline
210
0.0
220
0.0
230
1.0
 70
     8
 71
     3
 72
    10
 73
     6
 74
     0
 42
0.00000001
 43
0.00000001
 12
1.0
 22
0.0
 32
0.0
 13
1.0
 23
0.0
 33
0.0
 40
0.0
 40
0.0
 40
0.0
 40
0.0
 40
0.5
 40
0.5
 40
1.0
 40
1.0
 40
1.0
 40
1.0
 10
33.70100887389471
 20
6.400764169090216
 30
0.0
 10
34.52529232418953
 20
5.668649668339251
 30
0.0
 10
35.38706188988503
 20
4.952868909372216
 30
0.0
 10
37.16029548113434
 20
3.542960648030415
 30
0.0
 10
38.07196052195959
 20
2.848920733593279
 30
0.0
 10
39.00100887389477
 20
2.162455210687108
 30
0.0
  0
LINE
  5
CF
330
1F
100
AcDbEntity
  8
1
 62
     4
420
    65535
100
AcDbLine
 10
39.0010088739
 20
2.1624552107
 30
0.0
 11
39.0010088739
 21
1.106686695
 31
0.0
  0
SPLINE
  5
D0
330
1F
100
AcDbEntity
  8
1
 62
     4
420
    65535
100
AcDbSpline
210
0.0
220
0.0
230
1.0
 70
     8
 71
     3
 72
     8
 73
     4
 74
     0
 42
0.00000001
 43
0.00000001
 12
1.0
 22
0.0
 32
0.0
 13
1.0
 23
0.0
 33
0.0
 40
0.0
 40
0.0
 40
0.0
 40
0.0
 40
1.0
 40
1.0
 40
1.0
 40
1.0
 10
39.00100887389477
 20
1.106686694995437
 30
0.0
 10
37.27180162520514
 20
-0.2004501843432213
 30
0.0
 10
35.48963099995479
 20
-1.485823348085947
 30
0.0
 10
33.68100887389477
 20
-2.756832086941178
 30
0.0
  0
LINE
  5
D1
330
1F
100
AcDbEntity
  8
1
 62
     4
420
    65535
100
AcDbLine
 10
33.6810088739
 20
-2.7568320869
 30
0.0
 11
30.5010088739
 21
-2.7568320869
 31
0.0
  0
LINE
  5
D2
330
1F
100
AcDbEntity
  8
1
 62
     4
420
    65535
100
AcDbLine
 10
29.0010088739
 20
9.2217547509
 30
0.0
 11
32.2010088739
 21
9.2217547509
 31
0.0
  0
ELLIPSE
  5
D3
330
1F
100
AcDbEntity
  8
1
 62
     4
420
    65535
100
AcDbEllipse
 10
31.9010088739
 20
-0.8436357097
 30
0.0
 11
2.749999999999996
 21
0.0
 31
0.0
210
0.0
220
0.0
230
1.0
 40
0.5757674052
 41
0.0
 42
6.283185307179586
  0
LINE
  5
D4
330
1F
100
AcDbEntity
  8
1
 62
     4
420
    65535
100
AcDbLine
 10
33.6810088739
 20
-14.4513299587
 30
0.0
 11
33.6810088739
 21
-2.7568320869
 31
0.0
  0
LINE
  5
D5
330
1F
100
AcDbEntity
  8
1
 62
     4
420
    65535
100
AcDbLine
 10
33.6810088739
 20
-14.4513299587
 30
0.0
 11
30.5010088739
 21
-14.4513299587
 31
0.0
  0
LINE
  5
D6
330
1F
100
AcDbEntity
  8
1
 62
     4
420
    65535
100
AcDbLine
 10
39.0010088739
 20
-11.6243476843
 30
0.0
 11
39.0010088739
 21
1.106686695
 31
0.0
  0
SPLINE
  5
D7
330
1F
100
AcDbEntity
  8
1
 62
     4
420
    65535
100
AcDbSpline
210
0.0
220
0.0
230
1.0
 70
     8
 71
     3
 72
     8
 73
     4
 74
     0
 42
0.00000001
 43
0.00000001
 12
1.0
 22
0.0
 32
0.0
 13
1.0
 23
0.0
 33
0.0
 40
0.0000002921195444
 40
0.0000002921195444
 40
0.0000002921195444
 40
0.0000002921195444
 40
0.0077636493263124
 40
0.0077636493263124
 40
0.0077636493263124
 40
0.0077636493263124
 10
39.00100887389477
 20
-11.62434768428971
 30
0.0
 10
37.22927880418758
 20
-12.56742874833126
 30
0.0
 10
35.45570270793971
 20
-13.50964306692849
 30
0.0
 10
33.68100887389477
 20
-14.45132995872459
 30
0.0
  0
LINE
  5
D8
330
1F
100
AcDbEntity
  8
1
 62
     4
420
    65535
100
AcDbLine
 10
16.0976304623
 20
-14.4540697267
 30
0.0
 11
19.4043872855
 21
-16.2718884273
 31
0.0
  0
LINE
  5
D9
330
1F
100
AcDbEntity
  8
1
 62
     4
420
    65535
100
AcDbLine
 10
16.0976304623
 20
-14.4540697267
 30
0.0
 11
16.0976304623
 21
8.5967433876
 31
0.0
  0
LINE
  5
DA
330
1F
100
AcDbEntity
  8
1
 62
     4
420
    65535
100
AcDbLine
 10
23.8595875177
 20
14.7301035406
 30
0.0
 11
29.8207527528
 21
11.749520923
 31
0.0
  0
LINE
  5
DB
330
1F
100
AcDbEntity
  8
1
 62
     4
420
    65535
100
AcDbLine
 10
29.0010088739
 20
11.749520923
 30
0.0
 11
29.8207527528
 21
11.749520923
 31
0.0
  0
ARC
  5
DC
330
1F
100
AcDbEntity
  8
1
 62
     4
420
    65535
100
AcDbCircle
 10
28.5745155345
 20
51.7597318752
 30
0.0
 40
40.01248401445799
100
AcDbArc
 50
250.5628462695
 51
270.6107276687
  0
ARC
  5
DD
330
1F
100
AcDbEntity
  8
1
 62
     4
420
    65535
100
AcDbCircle
 10
9.0652987244
 20
27.2695776583
 30
0.0
 40
14.61901134126788
100
AcDbArc
 50
295.0687488678
 51
298.7533593795
  0
LINE
  5
DE
330
1F
100
AcDbEntity
  8
1
 62
     4
420
    65535
100
AcDbLine
 10
16.0976304623
 20
14.4531115727
 30
0.0
 11
19.4043872855
 21
16.2709302733
 31
0.0
  0
ARC
  5
DF
330
1F
100
AcDbEntity
  8
1
 62
     4
420
    65535
100
AcDbCircle
 10
29.8188968064
 20
-4.6471687353
 30
0.0
 40
23.36726074433714
100
AcDbArc
 50
89.6514908625
 51
116.4673701804
  0
LINE
  5
E0
330
1F
100
AcDbEntity
  8
1
 62
     4
420
    65535
100
AcDbLine
 10
29.9610303761
 20
18.7196597346
 30
0.0
 11
23.8595875177
 21
15.6689383054
 31
0.0
  0
LINE
  5
E1
330
1F
100
AcDbEntity
  8
1
 62
     4
420
    65535
100
AcDbLine
 10
19.4043872855
 20
16.2709302733
 30
0.0
 11
19.4043872855
 21
29.8016567144
 31
0.0
  0
SPLINE
  5
E2
330
1F
100
AcDbEntity
  8
1
 62
     4
420
    65535
100
AcDbSpline
210
0.0
220
0.0
230
1.0
 70
     8
 71
     3
 72
    18
 73
    14
 74
     0
 42
0.00000001
 43
0.00000001
 12
1.0
 22
0.0
 32
0.0
 13
1.0
 23
0.0
 33
0.0
 40
0.0
 40
0.0
 40
0.0
 40
0.0
 40
0.2499999999999998
 40
0.2499999999999998
 40
0.3749999999999998
 40
0.3749999999999998
 40
0.4999999999999998
 40
0.4999999999999998
 40
0.6249999999999998
 40
0.6249999999999998
 40
0.7499999999999998
 40
0.7499999999999998
 40
1.0
 40
1.0
 40
1.0
 40
1.0
 10
29.00100887389477
 20
30.92903242722842
 30
0.0
 10
27.91142823014432
 20
30.87512687050896
 30
0.0
 10
26.88879810630381
 20
30.83395647080608
 30
0.0
 10
25.43345030829915
 20
30.76385907213289
 30
0.0
 10
24.97270718512372
 20
30.73938402085683
 30
0.0
 10
24.09736865368432
 20
30.68337531253547
 30
0.0
 10
23.68148065965324
 20
30.65178414762589
 30
0.0
 10
22.88635412328384
 20
30.57679166288886
 30
0.0
 10
22.50554501938142
 20
30.53311907542348
 30
0.0
 10
21.78785963929491
 20
30.43159165901233
 30
0.0
 10
21.44990145865939
 20
30.37372681836038
 30
0.0
 10
20.48903254063309
 20
30.17502193263697
 30
0.0
 10
19.91851836752265
 20
30.00891237619292
 30
0.0
 10
19.40438728545129
 20
29.80165671439268
 30
0.0
  0
SPLINE
  5
E3
330
1F
100
AcDbEntity
  8
1
 62
     4
420
    65535
100
AcDbSpline
210
0.0
220
0.0
230
1.0
 70
     8
 71
     3
 72
     8
 73
     4
 74
     0
 42
0.00000001
 43
0.00000001
 12
1.0
 22
0.0
 32
0.0
 13
1.0
 23
0.0
 33
0.0
 40
0.0
 40
0.0
 40
0.0
 40
0.0
 40
1.0
 40
1.0
 40
1.0
 40
1.0
 10
30.50100887389476
 20
30.96603120835342
 30
0.0
 10
29.99930567198713
 20
30.96603120835342
 30
0.0
 10
29.4993074936906
 20
30.9536850903119
 30
0.0
 10
29.00100887389477
 20
30.92903242722845
 30
0.0
  0
LINE
  5
E4
330
1F
100
AcDbEntity
  8
1
 62
     4
420
    65535
100
AcDbLine
 10
30.5010088739
 20
22.6949336488
 30
0.0
 11
30.5010088739
 21
30.9660312084
 31
0.0
  0
SPLINE
  5
E5
330
1F
100
AcDbEntity
  8
1
 62
     4
420
    65535
100
AcDbSpline
210
0.0
220
0.0
230
1.0
 70
     8
 71
     3
 72
     8
 73
     4
 74
     0
 42
0.00000001
 43
0.00000001
 12
1.0
 22
0.0
 32
0.0
 13
1.0
 23
0.0
 33
0.0
 40
0.0
 40
0.0
 40
0.0
 40
0.0
 40
1.0
 40
1.0
 40
1.0
 40
1.0
 10
30.50100887389477
 20
22.69493364880402
 30
0.0
 10
30.21333349738264
 20
22.69493364880402
 30
0.0
 10
29.92707876982619
 20
22.69076574636511
 30
0.0
 10
29.64221036403944
 20
22.68253065064667
 30
0.0
  0
SPLINE
  5
E6
330
1F
100
AcDbEntity
  8
1
 62
     4
420
    65535
100
AcDbSpline
210
0.0
220
0.0
230
1.0
 70
     8
 71
     3
 72
     8
 73
     4
 74
     0
 42
0.00000001
 43
0.00000001
 12
1.0
 22
0.0
 32
0.0
 13
1.0
 23
0.0
 33
0.0
 40
0.0
 40
0.0
 40
0.0
 40
0.0
 40
1.0
 40
1.0
 40
1.0
 40
1.0
 10
29.64221036403945
 20
22.68253065064668
 30
0.0
 10
29.85584269399078
 20
21.42993508263384
 30
0.0
 10
29.96103037606811
 20
20.10828681392565
 30
0.0
 10
29.96103037606811
 20
18.71965973464708
 30
0.0
  0
LINE
  5
E7
330
1F
100
AcDbEntity
  8
1
 62
     4
420
    65535
100
AcDbLine
 10
33.6810088739
 20
22.6949336488
 30
0.0
 11
32.3312594493
 21
22.6949336488
 31
0.0
  0
LINE
  5
E8
330
1F
100
AcDbEntity
  8
1
 62
     4
420
    65535
100
AcDbLine
 10
31.4707582985
 20
22.6949336488
 30
0.0
 11
30.5010088739
 21
22.6949336488
 31
0.0
  0
SPLINE
  5
E9
330
1F
100
AcDbEntity
  8
1
 62
     4
420
    65535
100
AcDbSpline
210
0.0
220
0.0
230
1.0
 70
     8
 71
     3
 72
     8
 73
     4
 74
     0
 42
0.00000001
 43
0.00000001
 12
1.0
 22
0.0
 32
0.0
 13
1.0
 23
0.0
 33
0.0
 40
0.0000002921195444
 40
0.0000002921195444
 40
0.0000002921195444
 40
0.0000002921195444
 40
0.0077636493263124
 40
0.0077636493263124
 40
0.0077636493263124
 40
0.0077636493263124
 10
39.00100887389476
 20
19.86795137436911
 30
0.0
 10
37.22927880418757
 20
20.81103243841067
 30
0.0
 10
35.45570270793971
 20
21.75324675700791
 30
0.0
 10
33.68100887389476
 20
22.69493364880402
 30
0.0
  0
LINE
  5
EA
330
1F
100
AcDbEntity
  8
1
 62
     4
420
    65535
100
AcDbLine
 10
39.0010088739
 20
19.1343166244
 30
0.0
 11
39.0010088739
 21
19.8679513744
 31
0.0
  0
LINE
  5
EB
330
1F
100
AcDbEntity
  8
1
 62
     4
420
    65535
100
AcDbLine
 10
38.8680383426
 20
19.0668214241
 30
0.0
 11
39.0010088739
 21
19.1343166244
 31
0.0
  0
LINE
  5
EC
330
1F
100
AcDbEntity
  8
1
 62
     4
420
    65535
100
AcDbLine
 10
33.6810088739
 20
22.6949336488
 30
0.0
 11
33.6810088739
 21
30.9660312084
 31
0.0
  0
SPLINE
  5
ED
330
1F
100
AcDbEntity
  8
1
 62
     4
420
    65535
100
AcDbSpline
210
0.0
220
0.0
230
1.0
 70
     8
 71
     3
 72
     8
 73
     4
 74
     0
 42
0.00000001
 43
0.00000001
 12
1.0
 22
0.0
 32
0.0
 13
1.0
 23
0.0
 33
0.0
 40
0.0
 40
0.0
 40
0.0
 40
0.0
 40
1.0
 40
1.0
 40
1.0
 40
1.0
 10
39.00100887389477
 20
28.11934245277606
 30
0.0
 10
37.2714238638055
 20
29.08266758618771
 30
0.0
 10
35.48952895155706
 20
30.02958898029037
 30
0.0
 10
33.68100887389477
 20
30.96603120835341
 30
0.0
  0
LINE
  5
EE
330
1F
100
AcDbEntity
  8
1
 62
     4
420
    65535
100
AcDbLine
 10
39.0010088739
 20
19.8679513744
 30
0.0
 11
39.0010088739
 21
28.1193424528
 31
0.0
  0
LINE
  5
EF
330
1F
100
AcDbEntity
  8
1
 62
     4
420
    65535
100
AcDbLine
 10
33.6810088739
 20
30.9660312084
 30
0.0
 11
30.5010088739
 21
30.9660312084
 31
0.0
  0
ARC
  5
F0
330
1F
100
AcDbEntity
  8
1
 62
     4
420
    65535
100
AcDbCircle
 10
5.0010088739
 20
38.999520923
 30
0.0
 40
14.99999999999999
100
AcDbArc
 50
313.1488682961
 51
317.7122331829
  0
SPLINE
  5
F1
330
1F
100
AcDbEntity
  8
1
 62
     4
420
    65535
100
AcDbSpline
210
0.0
220
0.0
230
1.0
 70
     8
 71
     3
 72
     9
 73
     5
 74
     0
 42
0.00000001
 43
0.00000001
 12
1.0
 22
0.0
 32
0.0
 13
1.0
 23
0.0
 33
0.0
 40
0.0
 40
0.0
 40
0.0
 40
0.0
 40
0.7464496524143127
 40
1.0
 40
1.0
 40
1.0
 40
1.0
 10
14.25497044039876
 20
27.11040738258025
 30
0.0
 10
14.19557417183711
 20
27.07607930035743
 30
0.0
 10
14.11600247082613
 20
27.03009082395879
 30
0.0
 10
14.12554254347936
 20
27.0485441548103
 30
0.0
 10
14.12796143221658
 20
27.05322300326182
 30
0.0
  0
SPLINE
  5
F2
330
1F
100
AcDbEntity
  8
1
 62
     4
420
    65535
100
AcDbSpline
210
0.0
220
0.0
230
1.0
 70
     8
 71
     3
 72
    14
 73
    10
 74
     0
 42
0.00000001
 43
0.00000001
 12
1.0
 22
0.0
 32
0.0
 13
1.0
 23
0.0
 33
0.0
 40
0.0
 40
0.0
 40
0.0
 40
0.0
 40
0.25
 40
0.25
 40
0.5
 40
0.5
 40
0.75
 40
0.75
 40
1.0
 40
1.0
 40
1.0
 40
1.0
 10
14.13093799759818
 20
27.07249777974233
 30
0.0
 10
14.15672891817011
 20
27.0996459750023
 30
0.0
 10
14.20667519242956
 20
27.14330954124367
 30
0.0
 10
14.34913371237909
 20
27.26298649360402
 30
0.0
 10
14.43933367982336
 20
27.3371359188232
 30
0.0
 10
14.64765778535534
 20
27.51143384000894
 30
0.0
 10
14.7635257092128
 20
27.60976988702634
 30
0.0
 10
15.00794816052234
 20
27.82425216093302
 30
0.0
 10
15.13398563104611
 20
27.9382209727142
 30
0.0
 10
15.25945321987534
 20
28.05583234922119
 30
0.0
  0
SPLINE
  5
F3
330
1F
100
AcDbEntity
  8
1
 62
     4
420
    65535
100
AcDbSpline
210
0.0
220
0.0
230
1.0
 70
     8
 71
     3
 72
     8
 73
     4
 74
     0
 42
0.00000001
 43
0.00000001
 12
1.0
 22
0.0
 32
0.0
 13
1.0
 23
0.0
 33
0.0
 40
0.0
 40
0.0
 40
0.0
 40
0.0
 40
1.0
 40
1.0
 40
1.0
 40
1.0
 10
16.09763046233822
 20
28.19969428897538
 30
0.0
 10
15.48682975301273
 20
27.82812468114109
 30
0.0
 10
14.86068731112201
 20
27.47571434267766
 30
0.0
 10
14.25497044039981
 20
27.11040738257933
 30
0.0
  0
LINE
  5
F4
330
1F
100
AcDbEntity
  8
1
 62
     4
420
    65535
100
AcDbLine
 10
16.0976304623
 20
14.4531115727
 30
0.0
 11
16.0976304623
 21
28.199694289
 31
0.0
  0
SPLINE
  5
F5
330
1F
100
AcDbEntity
  8
1
 62
     4
420
    65535
100
AcDbSpline
210
0.0
220
0.0
230
1.0
 70
     8
 71
     3
 72
    14
 73
    10
 74
     0
 42
0.00000001
 43
0.00000001
 12
1.0
 22
0.0
 32
0.0
 13
1.0
 23
0.0
 33
0.0
 40
0.0
 40
0.0
 40
0.0
 40
0.0
 40
0.25
 40
0.25
 40
0.5
 40
0.5
 40
0.75
 40
0.75
 40
1.0
 40
1.0
 40
1.0
 40
1.0
 10
14.25497044040002
 20
11.70692882096994
 30
0.0
 10
14.15781534322732
 20
11.87347592688925
 30
0.0
 10
14.10615218972433
 20
12.08514096921932
 30
0.0
 10
14.11733496137452
 20
12.53976187871559
 30
0.0
 10
14.17963712310396
 20
12.78227977980461
 30
0.0
 10
14.39419498706711
 20
13.2387186174242
 30
0.0
 10
14.54583659375328
 20
13.4524722297668
 30
0.0
 10
14.8852745295602
 20
13.80234751539211
 30
0.0
 10
15.07456161885352
 20
13.94101937306598
 30
0.0
 10
15.25945321987531
 20
14.02767663612359
 30
0.0
  0
SPLINE
  5
F6
330
1F
100
AcDbEntity
  8
1
 62
     4
420
    65535
100
AcDbSpline
210
0.0
220
0.0
230
1.0
 70
     8
 71
     3
 72
    18
 73
    14
 74
     0
 42
0.00000001
 43
0.00000001
 12
1.0
 22
0.0
 32
0.0
 13
1.0
 23
0.0
 33
0.0
 40
0.0
 40
0.0
 40
0.0
 40
0.0
 40
0.1250000000000012
 40
0.1250000000000012
 40
0.2500000000000025
 40
0.2500000000000025
 40
0.5000000000000017
 40
0.5000000000000017
 40
0.7500000000000008
 40
0.7500000000000008
 40
0.8750000000000004
 40
0.8750000000000004
 40
1.0
 40
1.0
 40
1.0
 40
1.0
 10
14.25497044039996
 20
-15.40395763858373
 30
0.0
 10
14.20633627142584
 20
-15.29125582843912
 30
0.0
 10
14.16863782179853
 20
-15.17600683542859
 30
0.0
 10
14.12025213331069
 20
-14.95213230499228
 30
0.0
 10
14.10895195679481
 20
-14.84019327873546
 30
0.0
 10
14.11732506780743
 20
-14.52553359276292
 30
0.0
 10
14.17951516404309
 20
-14.33913392305227
 30
0.0
 10
14.39432365989107
 20
-14.06223763929972
 30
0.0
 10
14.54587567317494
 20
-13.97265482608583
 30
0.0
 10
14.80032019786284
 20
-13.92781118009472
 30
0.0
 10
14.89033854623215
 20
-13.92734878605106
 30
0.0
 10
15.07450832489169
 20
-13.95635665563
 30
0.0
 10
15.16689316340612
 20
-13.98525260765944
 30
0.0
 10
15.25945321987533
 20
-14.028634790072
 30
0.0
  0
SPLINE
  5
F7
330
1F
100
AcDbEntity
  8
1
 62
     4
420
    65535
100
AcDbSpline
210
0.0
220
0.0
230
1.0
 70
     8
 71
     3
 72
     8
 73
     4
 74
     0
 42
0.00000001
 43
0.00000001
 12
1.0
 22
0.0
 32
0.0
 13
1.0
 23
0.0
 33
0.0
 40
0.0
 40
0.0
 40
0.0
 40
0.0
 40
1.0
 40
1.0
 40
1.0
 40
1.0
 10
16.09763046233824
 20
-19.60342997830814
 30
0.0
 10
15.4868474422626
 20
-18.20001078705214
 30
0.0
 10
14.86066410840973
 20
-16.80755462024817
 30
0.0
 10
14.25497044039991
 20
-15.40395763858377
 30
0.0
  0
LINE
  5
F8
330
1F
100
AcDbEntity
  8
1
 62
     4
420
    65535
100
AcDbLine
 10
16.0976304623
 20
-28.9076603764
 30
0.0
 11
16.0976304623
 21
-19.6034299783
 31
0.0
  0
ARC
  5
F9
330
1F
100
AcDbEntity
  8
1
 62
     4
420
    65535
100
AcDbCircle
 10
5.0010088739
 20
-39.000479077
 30
0.0
 40
15.0
100
AcDbArc
 50
42.2877668171
 51
46.8511317039
  0
LINE
  5
FA
330
1F
100
AcDbEntity
  8
1
 62
     4
420
    65535
100
AcDbLine
 10
6.3010088739
 20
-23.6874434686
 30
0.0
 11
6.3010088739
 21
-24.0569185909
 31
0.0
  0
SPLINE
  5
FB
330
1F
100
AcDbEntity
  8
1
 62
     4
420
    65535
100
AcDbSpline
210
0.0
220
0.0
230
1.0
 70
     8
 71
     3
 72
    14
 73
    10
 74
     0
 42
0.00000001
 43
0.00000001
 12
1.0
 22
0.0
 32
0.0
 13
1.0
 23
0.0
 33
0.0
 40
0.0
 40
0.0
 40
0.0
 40
0.0
 40
0.25
 40
0.25
 40
0.5
 40
0.5
 40
0.75
 40
0.75
 40
1.0
 40
1.0
 40
1.0
 40
1.0
 10
5.301008873874546
 20
-23.43344780491533
 30
0.0
 10
5.434987757355667
 20
-23.43619311524188
 30
0.0
 10
5.566294719767336
 20
-23.44679128653269
 30
0.0
 10
5.809182180902758
 20
-23.48042119768452
 30
0.0
 10
5.919809313064714
 20
-23.50338395772376
 30
0.0
 10
6.102475689553204
 20
-23.55437961916483
 30
0.0
 10
6.175967189588774
 20
-23.58277419403435
 30
0.0
 10
6.274620945158089
 20
-23.63736277281757
 30
0.0
 10
6.301008873898977
 20
-23.66406223337503
 30
0.0
 10
6.301008873898985
 20
-23.68744346857035
 30
0.0
  0
SPLINE
  5
FC
330
1F
100
AcDbEntity
  8
1
 62
     4
420
    65535
100
AcDbSpline
210
0.0
220
0.0
230
1.0
 70
     8
 71
     3
 72
    10
 73
     6
 74
     0
 42
0.00000001
 43
0.00000001
 12
1.0
 22
0.0
 32
0.0
 13
1.0
 23
0.0
 33
0.0
 40
0.0
 40
0.0
 40
0.0
 40
0.0
 40
0.5
 40
0.5
 40
1.0
 40
1.0
 40
1.0
 40
1.0
 10
5.001008873894767
 20
-23.43037450994627
 30
0.0
 10
5.051003053682938
 20
-23.43037450994627
 30
0.0
 10
5.101034828872899
 20
-23.43063066780213
 30
0.0
 10
5.20109120861953
 20
-23.43165599735733
 30
0.0
 10
5.251073081641672
 20
-23.43242458959551
 30
0.0
 10
5.301008873874546
 20
-23.43344780491534
 30
0.0
  0
LINE
  5
FD
330
1F
100
AcDbEntity
  8
1
 62
     4
420
    65535
100
AcDbLine
 10
5.0010088739
 20
-23.4303745099
 30
0.0
 11
5.0010088739
 21
23.429416356
 31
0.0
  0
SPLINE
  5
FE
330
1F
100
AcDbEntity
  8
1
 62
     4
420
    65535
100
AcDbSpline
210
0.0
220
0.0
230
1.0
 70
     8
 71
     3
 72
    10
 73
     6
 74
     0
 42
0.00000001
 43
0.00000001
 12
1.0
 22
0.0
 32
0.0
 13
1.0
 23
0.0
 33
0.0
 40
0.0
 40
0.0
 40
0.0
 40
0.0
 40
0.5
 40
0.5
 40
1.0
 40
1.0
 40
1.0
 40
1.0
 10
5.301008873894766
 20
23.43248965096711
 30
0.0
 10
5.251039616046623
 20
23.43146574991602
 30
0.0
 10
5.201040925075682
 20
23.43069715631393
 30
0.0
 10
5.100984494043294
 20
23.42967217003256
 30
0.0
 10
5.050969481965399
 20
23.42941635599764
 30
0.0
 10
5.001008873894766
 20
23.42941635599763
 30
0.0
  0
SPLINE
  5
FF
330
1F
100
AcDbEntity
  8
1
 62
     4
420
    65535
100
AcDbSpline
210
0.0
220
0.0
230
1.0
 70
     8
 71
     3
 72
    12
 73
     8
 74
     0
 42
0.00000001
 43
0.00000001
 12
1.0
 22
0.0
 32
0.0
 13
1.0
 23
0.0
 33
0.0
 40
0.0
 40
0.0
 40
0.0
 40
0.0
 40
0.25
 40
0.25
 40
0.5
 40
0.5
 40
1.0
 40
1.0
 40
1.0
 40
1.0
 10
6.301008873894765
 20
23.68648531462118
 30
0.0
 10
6.301008873894765
 20
23.66309265774405
 30
0.0
 10
6.275205622801564
 20
23.63678038257827
 30
0.0
 10
6.17601759301108
 20
23.58179202207436
 30
0.0
 10
6.102961509347556
 20
23.55357950357085
 30
0.0
 10
5.828688311096774
 20
23.47694253422407
 30
0.0
 10
5.569086529974745
 20
23.4379827282235
 30
0.0
 10
5.301008873895003
 20
23.4324896509665
 30
0.0
  0
LINE
  5
100
330
1F
100
AcDbEntity
  8
1
 62
     4
420
    65535
100
AcDbLine
 10
6.3010088739
 20
24.055960437
 30
0.0
 11
6.3010088739
 21
23.6864853146
 31
0.0
  0
ARC
  5
101
330
1F
100
AcDbEntity
  8
1
 62
     4
420
    65535
100
AcDbCircle
 10
9.0652987244
 20
-27.2705358123
 30
0.0
 40
14.61901134127421
100
AcDbArc
 50
61.2466406205
 51
64.9312511322
  0
SPLINE
  5
102
330
1F
100
AcDbEntity
  8
1
 62
     4
420
    65535
100
AcDbSpline
210
0.0
220
0.0
230
1.0
 70
     8
 71
     3
 72
     8
 73
     4
 74
     0
 42
0.00000001
 43
0.00000001
 12
1.0
 22
0.0
 32
0.0
 13
1.0
 23
0.0
 33
0.0
 40
0.0
 40
0.0
 40
0.0
 40
0.0
 40
1.0
 40
1.0
 40
1.0
 40
1.0
 10
19.40438728545129
 20
29.80165671439268
 30
0.0
 10
18.19553813451527
 20
29.31434746675007
 30
0.0
 10
17.08735137897536
 20
28.8017731786125
 30
0.0
 10
16.09763046233822
 20
28.19969428897538
 30
0.0
  0
ELLIPSE
  5
103
330
1F
100
AcDbEntity
  8
1
 62
     4
420
    65535
100
AcDbEllipse
 10
29.8207527528
 20
10.4504828173
 30
0.0
 11
1.299038105676668
 21
-1.29903810567666
 31
0.0
210
0.0
220
0.0
230
1.0
 40
0.5773502692
 41
1.229622768058299
 42
2.09439510239319
  0
LINE
  5
104
330
1F
100
AcDbEntity
  8
1
 62
     4
420
    65535
100
AcDbLine
 10
29.0010088739
 20
9.2217547509
 30
0.0
 11
29.0010088739
 21
11.749520923
 31
0.0
  0
LINE
  5
105
330
1F
100
AcDbEntity
  8
1
 62
     4
420
    65535
100
AcDbLine
 10
0.5010088739
 20
-23.4303745099
 30
0.0
 11
5.0010088739
 21
-23.4303745099
 31
0.0
  0
LINE
  5
106
330
1F
100
AcDbEntity
  8
1
 62
     4
420
    65535
100
AcDbLine
 10
0.5010088739
 20
-23.4303745099
 30
0.0
 11
0.5010088739
 21
23.429416356
 31
0.0
  0
LINE
  5
107
330
1F
100
AcDbEntity
  8
1
 62
     4
420
    65535
100
AcDbLine
 10
5.0010088739
 20
23.429416356
 30
0.0
 11
0.5010088739
 21
23.429416356
 31
0.0
  0
SPLINE
  5
108
330
1F
100
AcDbEntity
  8
1
 62
     4
420
    65535
100
AcDbSpline
210
0.0
220
0.0
230
1.0
 70
     8
 71
     3
 72
     8
 73
     4
 74
     0
 42
0.00000001
 43
0.00000001
 12
1.0
 22
0.0
 32
0.0
 13
1.0
 23
0.0
 33
0.0
 40
0.0
 40
0.0
 40
0.0
 40
0.0
 40
1.0
 40
1.0
 40
1.0
 40
1.0
 10
0.0010088738947615
 20
-22.91793966928254
 30
0.0
 10
0.1676299762373538
 20
-23.08879611689284
 30
0.0
 10
0.3342976153255977
 20
-23.25960677361103
 30
0.0
 10
0.5010088738947637
 20
-23.43037450994627
 30
0.0
  0
LINE
  5
109
330
1F
100
AcDbEntity
  8
1
 62
     4
420
    65535
100
AcDbLine
 10
0.0010088739
 20
-22.9179396693
 30
0.0
 11
0.0010088739
 21
22.9169815153
 31
0.0
  0
SPLINE
  5
10A
330
1F
100
AcDbEntity
  8
1
 62
     4
420
    65535
100
AcDbSpline
210
0.0
220
0.0
230
1.0
 70
     8
 71
     3
 72
     8
 73
     4
 74
     0
 42
0.00000001
 43
0.00000001
 12
1.0
 22
0.0
 32
0.0
 13
1.0
 23
0.0
 33
0.0
 40
0.0
 40
0.0
 40
0.0
 40
0.0
 40
1.0
 40
1.0
 40
1.0
 40
1.0
 10
0.5010088738947585
 20
23.42941635599763
 30
0.0
 10
0.3342973405111209
 20
23.25864833816104
 30
0.0
 10
0.1676296955827623
 20
23.08783767515565
 30
0.0
 10
0.0010088738947676
 20
22.91698151533391
 30
0.0
  0
SPLINE
  5
10B
330
1F
100
AcDbEntity
  8
1
 62
     4
420
    65535
100
AcDbSpline
210
0.0
220
0.0
230
1.0
 70
     8
 71
     3
 72
    18
 73
    14
 74
     0
 42
0.00000001
 43
0.00000001
 12
1.0
 22
0.0
 32
0.0
 13
1.0
 23
0.0
 33
0.0
 40
0.0
 40
0.0
 40
0.0
 40
0.0
 40
0.2499999999999999
 40
0.2499999999999999
 40
0.3749999999999999
 40
0.3749999999999999
 40
0.4999999999999999
 40
0.4999999999999999
 40
0.6249999999999999
 40
0.6249999999999999
 40
0.7499999999999998
 40
0.7499999999999998
 40
1.0
 40
1.0
 40
1.0
 40
1.0
 10
29.00100887389477
 20
-33.63612893894334
 30
0.0
 10
27.91142823014432
 20
-33.50906289693079
 30
0.0
 10
26.88879810630381
 20
-33.20104440977668
 30
0.0
 10
25.43345030829914
 20
-32.51791505390808
 30
0.0
 10
24.97270718512373
 20
-32.25786016314404
 30
0.0
 10
24.09736865368432
 20
-31.68727319731773
 30
0.0
 10
23.68148065965324
 20
-31.37601429563297
 30
0.0
 10
22.88635412328385
 20
-30.7074048697586
 30
0.0
 10
22.50554501938142
 20
-30.34815200187859
 30
0.0
 10
21.78785963929492
 20
-29.59964800484998
 30
0.0
 10
21.44990145865939
 20
-29.20983514354218
 30
0.0
 10
20.48903254063309
 20
-27.99838500939773
 30
0.0
 10
19.91851836752266
 20
-27.13505989926669
 30
0.0
 10
19.4043872854513
 20
-26.22191858489203
 30
0.0
  0
SPLINE
  5
10C
330
1F
100
AcDbEntity
  8
1
 62
     4
420
    65535
100
AcDbSpline
210
0.0
220
0.0
230
1.0
 70
     8
 71
     3
 72
     8
 73
     4
 74
     0
 42
0.00000001
 43
0.00000001
 12
1.0
 22
0.0
 32
0.0
 13
1.0
 23
0.0
 33
0.0
 40
0.0
 40
0.0
 40
0.0
 40
0.0
 40
1.0
 40
1.0
 40
1.0
 40
1.0
 10
19.4043872854513
 20
-26.22191858489204
 30
0.0
 10
18.19553813451528
 20
-24.07489783267617
 30
0.0
 10
17.08735137897537
 20
-21.87754907255542
 30
0.0
 10
16.09763046233823
 20
-19.60342997830815
 30
0.0
  0
LINE
  5
10D
330
1F
100
AcDbEntity
  8
1
 62
     4
420
    65535
100
AcDbLine
 10
16.0976304623
 20
-28.9076603764
 30
0.0
 11
19.4043872855
 21
-32.5432977776
 31
0.0
  0
LINE
  5
10E
330
1F
100
AcDbEntity
  8
1
 62
     4
420
    65535
100
AcDbLine
 10
19.4043872855
 20
-32.5432977776
 30
0.0
 11
19.4043872855
 21
-26.2219185849
 31
0.0
  0
SPLINE
  5
10F
330
1F
100
AcDbEntity
  8
1
 62
     4
420
    65535
100
AcDbSpline
210
0.0
220
0.0
230
1.0
 70
     8
 71
     3
 72
    10
 73
     6
 74
     0
 42
0.00000001
 43
0.00000001
 12
1.0
 22
0.0
 32
0.0
 13
1.0
 23
0.0
 33
0.0
 40
0.0
 40
0.0
 40
0.0
 40
0.0
 40
0.5
 40
0.5
 40
1.0
 40
1.0
 40
1.0
 40
1.0
 10
30.9621741090628
 20
10.72260543570379
 30
0.0
 10
30.97808886972662
 20
10.69848342847261
 30
0.0
 10
30.99761526064642
 20
10.67598546122909
 30
0.0
 10
31.04525348872097
 20
10.64144252960727
 30
0.0
 10
31.07381524467176
 20
10.62990568075511
 30
0.0
 10
31.10359546530024
 20
10.62990568075511
 30
0.0
  0
LINE
  5
110
330
1F
100
AcDbEntity
  8
1
 62
     4
420
    65535
100
AcDbLine
 10
31.1035954653
 20
10.6299056808
 30
0.0
 11
32.2010088739
 21
10.6299056808
 31
0.0
  0
LINE
  5
111
330
1F
100
AcDbEntity
  8
1
 62
     4
420
    65535
100
AcDbLine
 10
32.2010088739
 20
10.6299056808
 30
0.0
 11
32.2010088739
 21
9.2217547509
 31
0.0
  0
LINE
  5
112
330
1F
100
AcDbEntity
  8
1
 62
     4
420
    65535
100
AcDbLine
 10
30.5010088739
 20
-37.1467426845
 30
0.0
 11
30.5010088739
 21
-33.7233423723
 31
0.0
  0
SPLINE
  5
113
330
1F
100
AcDbEntity
  8
1
 62
     4
420
    65535
100
AcDbSpline
210
0.0
220
0.0
230
1.0
 70
     8
 71
     3
 72
     9
 73
     5
 74
     0
 42
0.00000001
 43
0.00000001
 12
1.0
 22
0.0
 32
0.0
 13
1.0
 23
0.0
 33
0.0
 40
0.0
 40
0.0
 40
0.0
 40
0.0
 40
0.5
 40
1.0
 40
1.0
 40
1.0
 40
1.0
 10
30.50100887389477
 20
-37.14674268450287
 30
0.0
 10
30.35782073996156
 20
-37.14674268450287
 30
0.0
 10
30.0714995065954
 20
-37.14260943754978
 30
0.0
 10
29.78528835143316
 20
-37.13020900549296
 30
0.0
 10
29.64221036403947
 20
-37.12193668818816
 30
0.0
  0
SPLINE
  5
114
330
1F
100
AcDbEntity
  8
1
 62
     4
420
    65535
100
AcDbSpline
210
0.0
220
0.0
230
1.0
 70
    24
 71
     3
 72
     8
 73
     4
 74
     0
 42
0.00000001
 43
0.00000001
 12
1.0
 22
0.0
 32
0.0
 13
1.0
 23
0.0
 33
0.0
 40
0.0
 40
0.0
 40
0.0
 40
0.0
 40
1.0
 40
1.0
 40
1.0
 40
1.0
 10
29.6422103640396
 20
-37.12193668818831
 30
0.0
 10
29.85679548986391
 20
-37.33652181401262
 30
0.0
 10
29.96103037606812
 20
-37.44075670021682
 30
0.0
 10
29.96103037606812
 20
-37.44075670021682
 30
0.0
  0
ARC
  5
115
330
1F
100
AcDbEntity
  8
1
 62
     4
420
    65535
100
AcDbCircle
 10
30.5010088739
 20
-22.450479077
 30
0.0
 40
15.00000000000001
100
AcDbArc
 50
222.2877668171
 51
267.936988331
  0
SPLINE
  5
116
330
1F
100
AcDbEntity
  8
1
 62
     4
420
    65535
100
AcDbSpline
210
0.0
220
0.0
230
1.0
 70
     8
 71
     3
 72
     8
 73
     4
 74
     0
 42
0.00000001
 43
0.00000001
 12
1.0
 22
0.0
 32
0.0
 13
1.0
 23
0.0
 33
0.0
 40
0.0
 40
0.0
 40
0.0
 40
0.0
 40
1.0
 40
1.0
 40
1.0
 40
1.0
 10
30.50100887389476
 20
-33.72334237226906
 30
0.0
 10
29.99930567198713
 20
-33.72334237226906
 30
0.0
 10
29.4993074936906
 20
-33.69424013403565
 30
0.0
 10
29.00100887389477
 20
-33.63612893894335
 30
0.0
  0
LINE
  5
117
330
1F
100
AcDbEntity
  8
1
 62
     4
420
    65535
100
AcDbLine
 10
32.2010088739
 20
10.6299056808
 30
0.0
 11
32.2010088739
 21
11.149520923
 31
0.0
  0
LINE
  5
118
330
1F
100
AcDbEntity
  8
1
 62
     4
420
    65535
100
AcDbLine
 10
39.0010088739
 20
-25.1794629279
 30
0.0
 11
39.0010088739
 21
-27.0131348348
 31
0.0
  0
SPLINE
  5
119
330
1F
100
AcDbEntity
  8
1
 62
     4
420
    65535
100
AcDbSpline
210
0.0
220
0.0
230
1.0
 70
     8
 71
     3
 72
     8
 73
     4
 74
     0
 42
0.00000001
 43
0.00000001
 12
1.0
 22
0.0
 32
0.0
 13
1.0
 23
0.0
 33
0.0
 40
0.0
 40
0.0
 40
0.0
 40
0.0
 40
1.0
 40
1.0
 40
1.0
 40
1.0
 10
39.00100887389478
 20
-27.01313483475504
 30
0.0
 10
37.2721883909345
 20
-29.2828786669111
 30
0.0
 10
35.48967846263152
 20
-31.51578063491514
 30
0.0
 10
33.68100887389477
 20
-33.72334237226903
 30
0.0
  0
LINE
  5
11A
330
1F
100
AcDbEntity
  8
1
 62
     4
420
    65535
100
AcDbLine
 10
33.6810088739
 20
-33.7233423723
 30
0.0
 11
30.5010088739
 21
-33.7233423723
 31
0.0
  0
CIRCLE
  5
11B
330
1F
100
AcDbEntity
  8
1
 62
     4
420
    65535
100
AcDbCircle
 10
31.9010088739
 20
-30.400479077
 30
0.0
 40
2.750000000000004
  0
SPLINE
  5
11C
330
1F
100
AcDbEntity
  8
1
 62
     4
420
    65535
100
AcDbSpline
210
0.0
220
0.0
230
1.0
 70
     8
 71
     3
 72
     9
 73
     5
 74
     0
 42
0.00000001
 43
0.00000001
 12
1.0
 22
0.0
 32
0.0
 13
1.0
 23
0.0
 33
0.0
 40
0.0
 40
0.0
 40
0.0
 40
0.0
 40
0.4458396601931848
 40
1.0
 40
1.0
 40
1.0
 40
1.0
 10
34.19872343584288
 20
-18.54174985653469
 30
0.0
 10
34.87948706919039
 20
-19.55172252136665
 30
0.0
 10
36.40641186778848
 20
-21.81704962213272
 30
0.0
 10
38.07586445877971
 20
-23.98054152170839
 30
0.0
 10
39.00100887389477
 20
-25.17946292794653
 30
0.0
  0
SPLINE
  5
11D
330
1F
100
AcDbEntity
  8
1
 62
     4
420
    65535
100
AcDbSpline
210
0.0
220
0.0
230
1.0
 70
     8
 71
     3
 72
     8
 73
     4
 74
     0
 42
0.00000001
 43
0.00000001
 12
1.0
 22
0.0
 32
0.0
 13
1.0
 23
0.0
 33
0.0
 40
0.0
 40
0.0
 40
0.0
 40
0.0
 40
1.0
 40
1.0
 40
1.0
 40
1.0
 10
39.00100887389477
 20
-31.4927781356331
 30
0.0
 10
37.22928076364901
 20
-33.37893817769757
 30
0.0
 10
35.4557029174261
 20
-35.2633686785956
 30
0.0
 10
33.68100887389477
 20
-37.14674268450287
 30
0.0
  0
LINE
  5
11E
330
1F
100
AcDbEntity
  8
1
 62
     4
420
    65535
100
AcDbLine
 10
33.6810088739
 20
-37.1467426845
 30
0.0
 11
33.6810088739
 21
-33.7233423723
 31
0.0
  0
LINE
  5
11F
330
1F
100
AcDbEntity
  8
1
 62
     4
420
    65535
100
AcDbLine
 10
39.0010088739
 20
-31.4927781356
 30
0.0
 11
39.0010088739
 21
-27.0131348348
 31
0.0
  0
LINE
  5
120
330
1F
100
AcDbEntity
  8
1
 62
     4
420
    65535
100
AcDbLine
 10
33.6810088739
 20
-37.1467426845
 30
0.0
 11
30.5010088739
 21
-37.1467426845
 31
0.0
  0
LINE
  5
121
330
1F
100
AcDbEntity
  8
1
 62
     4
420
    65535
100
AcDbLine
 10
16.0976304623
 20
28.9067022224
 30
0.0
 11
19.4043872855
 21
32.5423396236
 31
0.0
  0
ARC
  5
122
330
1F
100
AcDbEntity
  8
1
 62
     4
420
    65535
100
AcDbCircle
 10
30.5010088739
 20
22.449520923
 30
0.0
 40
15.0
100
AcDbArc
 50
92.063011669
 51
137.7122331829
  0
LINE
  5
123
330
1F
100
AcDbEntity
  8
1
 62
     4
420
    65535
100
AcDbLine
 10
29.9610303761
 20
37.4397985463
 30
0.0
 11
23.8595875177
 21
31.3383556879
 31
0.0
  0
LINE
  5
124
330
1F
100
AcDbEntity
  8
1
 62
     4
420
    65535
100
AcDbLine
 10
34.611492324
 20
-30.4713259871
 30
0.0
 11
33.6810088739
 21
-30.9669893623
 31
0.0
  0
LINE
  5
125
330
1F
100
AcDbEntity
  8
1
 62
     4
420
    65535
100
AcDbLine
 10
33.6810088739
 20
-30.9669893623
 30
0.0
 11
30.5010088739
 21
-30.9669893623
 31
0.0
  0
LINE
  5
126
330
1F
100
AcDbEntity
  8
1
 62
     4
420
    65535
100
AcDbLine
 10
30.5010088739
 20
-30.9669893623
 30
0.0
 11
29.2436439358
 21
-30.9359753822
 31
0.0
  0
ELLIPSE
  5
127
330
1F
100
AcDbEntity
  8
1
 62
     4
420
    65535
100
AcDbEllipse
 10
31.9010088739
 20
-29.5573224442
 30
0.0
 11
2.749999999999996
 21
0.0
 31
0.0
210
0.0
220
0.0
230
1.0
 40
0.4242325948
 41
3.358566609390522
 42
4.712388980384696
  0
ELLIPSE
  5
128
330
1F
100
AcDbEntity
  8
1
 62
     4
420
    65535
100
AcDbEllipse
 10
31.9010088739
 20
-29.5573224442
 30
0.0
 11
2.749999999999996
 21
0.0
 31
0.0
210
0.0
220
0.0
230
1.0
 40
0.4242325948
 41
0.5615642750171225
 42
2.580028378572664
  0
ELLIPSE
  5
129
330
1F
100
AcDbEntity
  8
1
 62
     4
420
    65535
100
AcDbEllipse
 10
31.9010088739
 20
-29.5573224442
 30
0.0
 11
2.749999999999996
 21
0.0
 31
0.0
210
0.0
220
0.0
230
1.0
 40
0.4242325948
 41
4.71238898038468
 42
6.066211351378934
  0
LINE
  5
12A
330
1F
100
AcDbEntity
  8
1
 62
     4
420
    65535
100
AcDbLine
 10
39.0010088739
 20
28.519264802
 30
0.0
 11
39.0010088739
 21
28.1193424528
 31
0.0
  0
LINE
  5
12B
330
1F
100
AcDbEntity
  8
1
 62
     4
420
    65535
100
AcDbLine
 10
39.0010088739
 20
-19.1352747783
 30
0.0
 11
39.0010088739
 21
-25.1905234372
 31
0.0
  0
LINE
  5
12C
330
1F
100
AcDbEntity
  8
1
 62
     4
420
    65535
100
AcDbLine
 10
36.0289148117
 20
-17.6266541686
 30
0.0
 11
39.0010088739
 21
-19.1352747783
 31
0.0
  0
LINE
  5
12D
330
1F
100
AcDbEntity
  8
1
 62
     4
420
    65535
100
AcDbLine
 10
39.0010088739
 20
11.6233895303
 30
0.0
 11
38.9697802608
 21
11.6399840295
 31
0.0
  0
LINE
  5
12E
330
1F
100
AcDbEntity
  8
1
 62
     4
420
    65535
100
AcDbLine
 10
39.0010088739
 20
10.8897547804
 30
0.0
 11
39.0010088739
 21
11.6233895303
 31
0.0
  0
SPLINE
  5
12F
330
1F
100
AcDbEntity
  8
1
 62
     4
420
    65535
100
AcDbSpline
210
0.0
220
0.0
230
1.0
 70
     8
 71
     3
 72
     8
 73
     4
 74
     0
 42
0.00000001
 43
0.00000001
 12
1.0
 22
0.0
 32
0.0
 13
1.0
 23
0.0
 33
0.0
 40
0.0
 40
0.0
 40
0.0
 40
0.0
 40
1.0
 40
1.0
 40
1.0
 40
1.0
 10
33.70100887389471
 20
8.199500345607417
 30
0.0
 10
35.46477305140873
 20
9.097681353343884
 30
0.0
 10
37.23195269837496
 20
9.994180179325912
 30
0.0
 10
39.00100887389477
 20
10.88975478035477
 30
0.0
  0
LINE
  5
130
330
1F
100
AcDbEntity
  8
1
 62
     4
420
    65535
100
AcDbLine
 10
33.322043746
 20
8.1995003456
 30
0.0
 11
33.7010088739
 21
8.1995003456
 31
0.0
  0
LINE
  5
131
330
1F
100
AcDbEntity
  8
1
 62
     4
420
    65535
100
AcDbLine
 10
33.7010088739
 20
8.1995003456
 30
0.0
 11
33.7010088739
 21
6.4007641691
 31
0.0
  0
LINE
  5
132
330
1F
100
AcDbEntity
  8
1
 62
     4
420
    65535
100
AcDbLine
 10
39.0010088739
 20
10.8897547804
 30
0.0
 11
39.0010088739
 21
2.1638747826
 31
0.0
  0
ARC
  5
133
330
1F
100
AcDbEntity
  8
1
 62
     4
420
    65535
100
AcDbCircle
 10
31.9010088739
 20
30.399520923
 30
0.0
 40
2.808850000000003
100
AcDbArc
 50
90.0
 51
169.0187563554
  0
ARC
  5
134
330
1F
100
AcDbEntity
  8
1
 62
     4
420
    65535
100
AcDbCircle
 10
31.9010088739
 20
30.399520923
 30
0.0
 40
2.808850000000002
100
AcDbArc
 50
0.5222212167
 51
90.0
  0
LWPOLYLINE
  5
135
330
1F
100
AcDbEntity
  8
1
 62
     4
420
    65535
100
AcDbPolyline
 90
       18
 70
   128
 43
0.0
 10
29.1149804354
 20
16.4457062845
 10
29.215279941
 20
16.2131230575
 10
29.3929140772
 20
15.9920932837
 10
29.6427015343
 20
15.7892529794
 10
29.9574563818
 20
15.6104374908
 10
30.3281236959
 20
15.4607910139
 10
30.7440400528
 20
15.3446186054
 10
31.1932402962
 20
15.2652623341
 10
31.6628017529
 20
15.2250051352
 10
32.1392159949
 20
15.2250051352
 10
32.6087774516
 20
15.2652623341
 10
33.057977695
 20
15.3446186054
 10
33.4738940519
 20
15.4607910139
 10
33.844561366
 20
15.6104374908
 10
34.1593162135
 20
15.7892529794
 10
34.4091036706
 20
15.9920932837
 10
34.5867378068
 20
16.2131230575
 10
34.6870373124
 20
16.4457062845
  0
LWPOLYLINE
  5
136
330
1F
100
AcDbEntity
  8
1
 62
     4
420
    65535
100
AcDbPolyline
 90
       18
 70
   128
 43
0.0
 10
29.2509938471
 20
16.5177855625
 10
29.2715503534
 20
16.4825506175
 10
29.445462764
 20
16.2661517789
 10
29.6900167654
 20
16.0675613106
 10
29.9981769842
 20
15.8924922989
 10
30.361078212
 20
15.7459811603
 10
30.7682804412
 20
15.6322427538
 10
31.2080692051
 20
15.554549126
 10
31.6677925816
 20
15.5151353813
 10
32.1342251662
 20
15.5151353813
 10
32.5939485427
 20
15.554549126
 10
33.0337373066
 20
15.6322427538
 10
33.4409395358
 20
15.7459811603
 10
33.8038407636
 20
15.8924922989
 10
34.1120009824
 20
16.0675613106
 10
34.3565549838
 20
16.2661517789
 10
34.5304673944
 20
16.4825506175
 10
34.5510239007
 20
16.5177855625
  0
LINE
  5
137
330
1F
100
AcDbEntity
  8
1
 62
     4
420
    65535
100
AcDbLine
 10
30.9621741091
 20
10.7226054357
 30
0.0
 11
30.9621741091
 21
11.1788102449
 31
0.0
  0
LWPOLYLINE
  5
138
330
1F
100
AcDbEntity
  8
1
 62
     4
420
    65535
100
AcDbPolyline
 90
        3
 70
   128
 43
0.0
 10
14.2549704404
 20
-15.4039576386
 10
15.4261428097
 20
-14.98532519
 10
16.4643046396
 20
-14.6556409979
  0
LINE
  5
139
330
1F
100
AcDbEntity
  8
1
 62
     4
420
    65535
100
AcDbLine
 10
29.0010088739
 20
-33.6361289389
 30
0.0
 11
29.0010088739
 21
-18.6878848553
 31
0.0
  0
LINE
  5
13A
330
1F
100
AcDbEntity
  8
1
 62
     4
420
    65535
100
AcDbLine
 10
31.1035954653
 20
10.6299056808
 30
0.0
 11
31.1035954653
 21
11.149520923
 31
0.0
  0
LINE
  5
13B
330
1F
100
AcDbEntity
  8
1
 62
     4
420
    65535
100
AcDbLine
 10
15.2594532199
 20
28.0558323492
 30
0.0
 11
15.5313121519
 21
27.8563648003
 31
0.0
  0
LINE
  5
13C
330
1F
100
AcDbEntity
  8
1
  6
SLD-Gestrichelt
 62
   131
420
  8454143
370
     0
100
AcDbLine
 10
38.7255707179
 20
-19.1467838295
 30
0.0
 11
38.7255707179
 21
-19.4987361684
 31
0.0
  0
LINE
  5
13D
330
1F
100
AcDbEntity
  8
1
  6
SLD-Gestrichelt
 62
   131
420
  8454143
370
     0
100
AcDbLine
 10
38.7255707179
 20
-19.4987361684
 30
0.0
 11
32.2529612128
 21
-22.735040921
 31
0.0
  0
LINE
  5
13E
330
1F
100
AcDbEntity
  8
1
  6
SLD-Gestrichelt
 62
   131
420
  8454143
370
     0
100
AcDbLine
 10
32.2529612128
 20
-22.735040921
 30
0.0
 11
31.549056535
 21
-22.735040921
 31
0.0
  0
LINE
  5
13F
330
1F
100
AcDbEntity
  8
1
  6
SLD-Gestrichelt
 62
   131
420
  8454143
370
     0
100
AcDbLine
 10
31.549056535
 20
-22.735040921
 30
0.0
 11
25.0764470299
 21
-19.4987361684
 31
0.0
  0
LINE
  5
140
330
1F
100
AcDbEntity
  8
1
  6
SLD-Gestrichelt
 62
   131
420
  8454143
370
     0
100
AcDbLine
 10
25.0764470299
 20
-19.4987361684
 30
0.0
 11
25.0764470299
 21
-19.1467838295
 31
0.0
  0
LINE
  5
141
330
1F
100
AcDbEntity
  8
1
  6
SLD-Gestrichelt
 62
   131
420
  8454143
370
     0
100
AcDbLine
 10
25.0764470299
 20
-19.1467838295
 30
0.0
 11
31.549056535
 21
-15.910479077
 31
0.0
  0
LINE
  5
142
330
1F
100
AcDbEntity
  8
1
  6
SLD-Gestrichelt
 62
   131
420
  8454143
370
     0
100
AcDbLine
 10
31.549056535
 20
-15.910479077
 30
0.0
 11
32.2529612128
 21
-15.910479077
 31
0.0
  0
LINE
  5
143
330
1F
100
AcDbEntity
  8
1
  6
SLD-Gestrichelt
 62
   131
420
  8454143
370
     0
100
AcDbLine
 10
32.2529612128
 20
-15.910479077
 30
0.0
 11
38.7255707179
 21
-19.1467838295
 31
0.0
  0
LWPOLYLINE
  5
144
330
1F
100
AcDbEntity
  8
1
  6
SLD-Gestrichelt
 62
   131
420
  8454143
370
     0
100
AcDbPolyline
 90
       42
 70
   128
 43
0.0
 10
31.9010088739
 20
-21.0575676201
 10
31.3713745906
 20
-21.03723641
 10
30.8541544861
 20
-20.9767193259
 10
30.3614717611
 20
-20.877434837
 10
29.9048744812
 20
-20.7417100876
 10
29.4950648997
 20
-20.5727263508
 10
29.1416486057
 20
-20.3744444621
 10
28.8529093776
 20
-20.1515119809
 10
28.6356150183
 20
-19.9091542557
 10
28.4948587234
 20
-19.6530519462
 10
28.433939701
 20
-19.3892078733
 10
28.4542858416
 20
-19.1238063186
 10
28.5554202487
 20
-18.8630680695
 10
28.7349724175
 20
-18.6131046097
 10
28.9887337976
 20
-18.3797748706
 10
29.310756437
 20
-18.1685479038
 10
29.6934923982
 20
-17.9843746902
 10
30.1279706746
 20
-17.8315720939
 10
30.6040074636
 20
-17.7137216782
 10
31.1104448664
 20
-17.633585757
 10
31.6354124195
 20
-17.5930426483
 10
32.1666053283
 20
-17.5930426483
 10
32.6915728814
 20
-17.633585757
 10
33.1980102842
 20
-17.7137216782
 10
33.6740470732
 20
-17.8315720939
 10
34.1085253496
 20
-17.9843746902
 10
34.4912613108
 20
-18.1685479038
 10
34.8132839502
 20
-18.3797748706
 10
35.0670453302
 20
-18.6131046097
 10
35.2465974991
 20
-18.8630680695
 10
35.3477319062
 20
-19.1238063186
 10
35.3680780468
 20
-19.3892078733
 10
35.3071590244
 20
-19.6530519462
 10
35.1664027295
 20
-19.9091542557
 10
34.9491083702
 20
-20.1515119809
 10
34.6603691421
 20
-20.3744444621
 10
34.3069528481
 20
-20.5727263508
 10
33.8971432666
 20
-20.7417100876
 10
33.4405459867
 20
-20.877434837
 10
32.9478632617
 20
-20.9767193259
 10
32.4306431571
 20
-21.03723641
 10
31.9010088739
 20
-21.0575676201
  0
LINE
  5
145
330
1F
100
AcDbEntity
  8
1
  6
SLD-Gestrichelt
 62
   131
420
  8454143
370
     0
100
AcDbLine
 10
31.1035954653
 20
-11.8968892385
 30
0.0
 11
30.9621741091
 21
-11.1797683989
 31
0.0
  0
LINE
  5
146
330
1F
100
AcDbEntity
  8
1
  6
SLD-Gestrichelt
 62
   131
420
  8454143
370
     0
100
AcDbLine
 10
31.549056535
 20
-15.910479077
 30
0.0
 11
31.1035954653
 21
-11.8968892385
 31
0.0
  0
LINE
  5
147
330
1F
100
AcDbEntity
  8
1
  6
SLD-Gestrichelt
 62
   131
420
  8454143
370
     0
100
AcDbLine
 10
25.0764470299
 20
-19.1467838295
 30
0.0
 11
24.0010088739
 21
-15.4481825342
 31
0.0
  0
LINE
  5
148
330
1F
100
AcDbEntity
  8
1
  6
SLD-Gestrichelt
 62
   131
420
  8454143
370
     0
100
AcDbLine
 10
24.0010088739
 20
-15.4481825342
 30
0.0
 11
23.8595875177
 21
-14.7310616946
 31
0.0
  0
LINE
  5
149
330
1F
100
AcDbEntity
  8
1
  6
SLD-Gestrichelt
 62
   131
420
  8454143
370
     0
100
AcDbLine
 10
39.8010088739
 20
-15.4481825342
 30
0.0
 11
39.9424302301
 21
-14.7310616946
 31
0.0
  0
LINE
  5
14A
330
1F
100
AcDbEntity
  8
1
  6
SLD-Gestrichelt
 62
   131
420
  8454143
370
     0
100
AcDbLine
 10
38.7255707179
 20
-19.1467838295
 30
0.0
 11
38.7639111308
 21
-19.0149251076
 31
0.0
  0
LINE
  5
14B
330
1F
100
AcDbEntity
  8
1
  6
SLD-Gestrichelt
 62
   131
420
  8454143
370
     0
100
AcDbLine
 10
39.701516215
 20
-15.7903534669
 30
0.0
 11
39.8010088739
 21
-15.4481825342
 31
0.0
  0
LINE
  5
14C
330
1F
100
AcDbEntity
  8
1
  6
SLD-Gestrichelt
 62
   131
420
  8454143
370
     0
100
AcDbLine
 10
32.2529612128
 20
-15.910479077
 30
0.0
 11
32.6984222825
 21
-11.8968892385
 31
0.0
  0
LINE
  5
14D
330
1F
100
AcDbEntity
  8
1
  6
SLD-Gestrichelt
 62
   131
420
  8454143
370
     0
100
AcDbLine
 10
32.6984222825
 20
-11.8968892385
 30
0.0
 11
32.8398436387
 21
-11.1797683989
 31
0.0
  0
LINE
  5
14E
330
1F
100
AcDbEntity
  8
1
  6
SLD-Gestrichelt
 62
   131
420
  8454143
370
     0
100
AcDbLine
 10
32.6984222825
 20
-11.8968892385
 30
0.0
 11
32.6984222825
 21
-11.150479077
 31
0.0
  0
LINE
  5
14F
330
1F
100
AcDbEntity
  8
1
  6
SLD-Gestrichelt
 62
   131
420
  8454143
370
     0
100
AcDbLine
 10
31.1035954653
 20
-11.8968892385
 30
0.0
 11
31.1035954653
 21
-11.150479077
 31
0.0
  0
LWPOLYLINE
  5
150
330
1F
100
AcDbEntity
  8
1
  6
SLD-Gestrichelt
 62
   131
420
  8454143
370
     0
100
AcDbPolyline
 90
       39
 70
   128
 43
0.0
 10
31.9010088739
 20
-20.5379523779
 10
31.4154548326
 20
-20.5178353004
 10
30.9431454397
 20
-20.4580328094
 10
30.4969640644
 20
-20.3601761609
 10
30.0890813715
 20
-20.2269346292
 10
29.7306233374
 20
-20.061942696
 10
29.431367763
 20
-19.8697009111
 10
29.1994775603
 20
-19.6554531292
 10
29.0412780894
 20
-19.4250434714
 10
28.9610846195
 20
-19.1847569124
 10
28.9610846195
 20
-18.9411478433
 10
29.0412780894
 20
-18.7008612843
 10
29.1994775603
 20
-18.4704516265
 10
29.431367763
 20
-18.2562038446
 10
29.7306233374
 20
-18.0639620597
 10
30.0890813715
 20
-17.8989701265
 10
30.4969640644
 20
-17.7657285948
 10
30.9431454397
 20
-17.6678719463
 10
31.4154548326
 20
-17.6080694553
 10
31.9010088739
 20
-17.5879523779
 10
32.3865629152
 20
-17.6080694553
 10
32.858872308
 20
-17.6678719463
 10
33.3050536834
 20
-17.7657285948
 10
33.7129363763
 20
-17.8989701265
 10
34.0713944104
 20
-18.0639620597
 10
34.3706499848
 20
-18.2562038446
 10
34.6025401875
 20
-18.4704516265
 10
34.7607396584
 20
-18.7008612843
 10
34.8409331283
 20
-18.9411478433
 10
34.8409331283
 20
-19.1847569124
 10
34.7607396584
 20
-19.4250434714
 10
34.6025401875
 20
-19.6554531292
 10
34.3706499848
 20
-19.8697009111
 10
34.0713944104
 20
-20.061942696
 10
33.7129363763
 20
-20.2269346292
 10
33.3050536834
 20
-20.3601761609
 10
32.858872308
 20
-20.4580328094
 10
32.3865629152
 20
-20.5178353004
 10
31.9010088739
 20
-20.5379523779
  0
LWPOLYLINE
  5
151
330
1F
100
AcDbEntity
  8
1
  6
SLD-Gestrichelt
 62
   131
420
  8454143
370
     0
100
AcDbPolyline
 90
       38
 70
   128
 43
0.0
 10
31.9010088739
 20
-20.4379523779
 10
31.436256618
 20
-20.4181742546
 10
30.9848744384
 20
-20.3594088654
 10
30.5598477784
 20
-20.2633467834
 10
30.1734038813
 20
-20.13275154
 10
29.8366600344
 20
-19.9713801225
 10
29.5593037451
 20
-19.7838748927
 10
29.3493140488
 20
-19.5756300348
 10
29.2127319668
 20
-19.3526363741
 10
29.1534867168
 20
-19.1213090322
 10
29.1732826769
 20
-18.8883028757
 10
29.2715503534
 20
-18.6603210673
 10
29.445462764
 20
-18.4439222287
 10
29.6900167654
 20
-18.2453317604
 10
29.9981769842
 20
-18.0702627487
 10
30.361078212
 20
-17.9237516101
 10
30.7682804412
 20
-17.8100132036
 10
31.2080692051
 20
-17.7323195758
 10
31.6677925816
 20
-17.6929058311
 10
32.1342251662
 20
-17.6929058311
 10
32.5939485427
 20
-17.7323195758
 10
33.0337373066
 20
-17.8100132036
 10
33.4409395358
 20
-17.9237516101
 10
33.8038407636
 20
-18.0702627487
 10
34.1120009824
 20
-18.2453317604
 10
34.3565549838
 20
-18.4439222287
 10
34.5304673944
 20
-18.6603210673
 10
34.6287350709
 20
-18.8883028757
 10
34.648531031
 20
-19.1213090322
 10
34.589285781
 20
-19.3526363741
 10
34.452703699
 20
-19.5756300348
 10
34.2427140027
 20
-19.7838748927
 10
33.9653577133
 20
-19.9713801225
 10
33.6286138665
 20
-20.13275154
 10
33.2421699694
 20
-20.2633467834
 10
32.8171433094
 20
-20.3594088654
 10
32.3657611298
 20
-20.4181742546
 10
31.9010088739
 20
-20.4379523779
  0
LWPOLYLINE
  5
152
330
1F
100
AcDbEntity
  8
1
  6
SLD-Gestrichelt
 62
   131
420
  8454143
370
     0
100
AcDbPolyline
 90
       38
 70
   128
 43
0.0
 10
31.9010088739
 20
-18.261140082
 10
31.436256618
 20
-18.2413619587
 10
30.9848744384
 20
-18.1825965695
 10
30.5598477784
 20
-18.0865344876
 10
30.1734038813
 20
-17.9559392442
 10
29.8366600344
 20
-17.7945678267
 10
29.5593037451
 20
-17.6070625969
 10
29.3493140488
 20
-17.3988177389
 10
29.2127319668
 20
-17.1758240782
 10
29.1534867168
 20
-16.9444967364
 10
29.1732826769
 20
-16.7114905798
 10
29.2715503534
 20
-16.4835087715
 10
29.445462764
 20
-16.2671099329
 10
29.6900167654
 20
-16.0685194646
 10
29.9981769842
 20
-15.8934504528
 10
30.361078212
 20
-15.7469393143
 10
30.7682804412
 20
-15.6332009077
 10
31.2080692051
 20
-15.55550728
 10
31.6677925816
 20
-15.5160935353
 10
32.1342251662
 20
-15.5160935353
 10
32.5939485427
 20
-15.55550728
 10
33.0337373066
 20
-15.6332009077
 10
33.4409395358
 20
-15.7469393143
 10
33.8038407636
 20
-15.8934504528
 10
34.1120009824
 20
-16.0685194646
 10
34.3565549838
 20
-16.2671099329
 10
34.5304673944
 20
-16.4835087715
 10
34.6287350709
 20
-16.7114905798
 10
34.648531031
 20
-16.9444967364
 10
34.589285781
 20
-17.1758240782
 10
34.452703699
 20
-17.3988177389
 10
34.2427140027
 20
-17.6070625969
 10
33.9653577133
 20
-17.7945678267
 10
33.6286138665
 20
-17.9559392442
 10
33.2421699694
 20
-18.0865344876
 10
32.8171433094
 20
-18.1825965695
 10
32.3657611298
 20
-18.2413619587
 10
31.9010088739
 20
-18.261140082
  0
LWPOLYLINE
  5
153
330
1F
100
AcDbEntity
  8
1
  6
SLD-Gestrichelt
 62
   131
420
  8454143
370
     0
100
AcDbPolyline
 90
       43
 70
   128
 43
0.0
 10
31.9010088739
 20
-17.4584917789
 10
31.3570046024
 20
-17.4381080367
 10
30.8251524873
 20
-17.3774121494
 10
30.3173332261
 20
-17.2777599628
 10
29.844890662
 20
-17.141377542
 10
29.418378381
 20
-16.971311445
 10
29.0473239629
 20
-16.7713606673
 10
28.7400161501
 20
-16.5459917789
 10
28.5033196913
 20
-16.3002391483
 10
28.3425219944
 20
-16.0395924833
 10
28.2612150142
 20
-15.7698741997
 10
28.2612150142
 20
-15.4971093581
 10
28.3425219944
 20
-15.2273910744
 10
28.5033196913
 20
-14.9667444094
 10
28.7400161501
 20
-14.7209917789
 10
29.0473239629
 20
-14.4956228905
 10
29.418378381
 20
-14.2956721128
 10
29.844890662
 20
-14.1256060157
 10
30.3173332261
 20
-13.9892235949
 10
30.8251524873
 20
-13.8895714083
 10
31.3570046024
 20
-13.828875521
 10
31.9010088739
 20
-13.8084917789
 10
32.4450131454
 20
-13.828875521
 10
32.9768652605
 20
-13.8895714083
 10
33.4846845217
 20
-13.9892235949
 10
33.9571270858
 20
-14.1256060157
 10
34.3836393668
 20
-14.2956721128
 10
34.7546937849
 20
-14.4956228905
 10
35.0620015977
 20
-14.7209917789
 10
35.2986980564
 20
-14.9667444094
 10
35.4594957534
 20
-15.2273910744
 10
35.5408027336
 20
-15.4971093581
 10
35.5408027336
 20
-15.7698741997
 10
35.4594957534
 20
-16.0395924833
 10
35.2986980564
 20
-16.3002391483
 10
35.0620015977
 20
-16.5459917789
 10
34.7546937849
 20
-16.7713606673
 10
34.3836393668
 20
-16.971311445
 10
33.9571270858
 20
-17.141377542
 10
33.4846845217
 20
-17.2777599628
 10
32.9768652605
 20
-17.3774121494
 10
32.4450131454
 20
-17.4381080367
 10
31.9010088739
 20
-17.4584917789
  0
LWPOLYLINE
  5
154
330
1F
100
AcDbEntity
  8
1
  6
SLD-Gestrichelt
 62
   131
420
  8454143
370
     0
100
AcDbPolyline
 90
       38
 70
   128
 43
0.0
 10
31.9010088739
 20
-18.029753832
 10
31.4263109197
 20
-18.0095524569
 10
30.9652691614
 20
-17.9495294883
 10
30.531146931
 20
-17.8514116779
 10
30.1364331345
 20
-17.7180216963
 10
29.7924829693
 20
-17.5531969304
 10
29.5091912554
 20
-17.3616790887
 10
29.2947077796
 20
-17.1489777908
 10
29.155202841
 20
-16.9212120658
 10
29.0946897427
 20
-16.6849343188
 10
29.1149093363
 20
-16.4469418305
 10
29.215279941
 20
-16.2140812114
 10
29.3929140772
 20
-15.9930514377
 10
29.6427015343
 20
-15.7902111334
 10
29.9574563818
 20
-15.6113956447
 10
30.3281236959
 20
-15.4617491679
 10
30.7440400528
 20
-15.3455767594
 10
31.1932402962
 20
-15.266220488
 10
31.6628017529
 20
-15.2259632892
 10
32.1392159949
 20
-15.2259632892
 10
32.6087774516
 20
-15.266220488
 10
33.057977695
 20
-15.3455767594
 10
33.4738940519
 20
-15.4617491679
 10
33.844561366
 20
-15.6113956447
 10
34.1593162135
 20
-15.7902111334
 10
34.4091036706
 20
-15.9930514377
 10
34.5867378068
 20
-16.2140812114
 10
34.6871084115
 20
-16.4469418305
 10
34.7073280051
 20
-16.6849343188
 10
34.6468149068
 20
-16.9212120658
 10
34.5073099682
 20
-17.1489777908
 10
34.2928264924
 20
-17.3616790887
 10
34.0095347785
 20
-17.5531969304
 10
33.6655846133
 20
-17.7180216963
 10
33.2708708168
 20
-17.8514116779
 10
32.8367485864
 20
-17.9495294883
 10
32.3757068281
 20
-18.0095524569
 10
31.9010088739
 20
-18.029753832
  0
LWPOLYLINE
  5
155
330
1F
100
AcDbEntity
  8
1
  6
SLD-Gestrichelt
 62
   131
420
  8454143
370
     0
100
AcDbPolyline
 90
       44
 70
   128
 43
0.0
 10
31.9010088739
 20
-17.0695608222
 10
31.3567279045
 20
-17.049642706
 10
30.824047339
 20
-16.9903128774
 10
30.3143203389
 20
-16.8928358489
 10
29.8384108502
 20
-16.7592891739
 10
29.4064620574
 20
-16.5925191681
 10
29.027680199
 20
-16.3960802445
 10
28.7101383528
 20
-16.1741591577
 10
28.460604372
 20
-15.9314857705
 10
28.28439664
 20
-15.6732322447
 10
28.1852707189
 20
-15.404902806
 10
28.1653393054
 20
-15.1322164304
 10
28.2250272031
 20
-14.8609849546
 10
28.3630622681
 20
-14.5969892065
 10
28.5765025225
 20
-14.3458557974
 10
28.860798858
 20
-14.1129371996
 10
29.2098919917
 20
-13.9031976689
 10
29.6163416096
 20
-13.7211074391
 10
30.0714849437
 20
-13.5705474473
 10
30.565621404
 20
-13.4547266184
 10
31.0882193298
 20
-13.3761134723
 10
31.6281404537
 20
-13.3363835117
 10
32.1738772941
 20
-13.3363835117
 10
32.713798418
 20
-13.3761134723
 10
33.2363963438
 20
-13.4547266184
 10
33.7305328041
 20
-13.5705474473
 10
34.1856761382
 20
-13.7211074391
 10
34.5921257561
 20
-13.9031976689
 10
34.9412188898
 20
-14.1129371996
 10
35.2255152253
 20
-14.3458557974
 10
35.4389554797
 20
-14.5969892065
 10
35.5769905447
 20
-14.8609849546
 10
35.6366784424
 20
-15.1322164304
 10
35.6167470289
 20
-15.404902806
 10
35.5176211077
 20
-15.6732322447
 10
35.3414133758
 20
-15.9314857705
 10
35.091879395
 20
-16.1741591577
 10
34.7743375488
 20
-16.3960802445
 10
34.3955556904
 20
-16.5925191681
 10
33.9636068976
 20
-16.7592891739
 10
33.4876974089
 20
-16.8928358489
 10
32.9779704087
 20
-16.9903128774
 10
32.4452898433
 20
-17.049642706
 10
31.9010088739
 20
-17.0695608222
  0
LINE
  5
156
330
1F
100
AcDbEntity
  8
1
  6
SLD-Gestrichelt
 62
   131
420
  8454143
370
     0
100
AcDbLine
 10
39.9916597177
 20
-15.6294027292
 30
0.0
 11
40.0010088739
 21
-15.5991857813
 31
0.0
  0
LINE
  5
157
330
1F
100
AcDbEntity
  8
1
  6
SLD-Gestrichelt
 62
   131
420
  8454143
370
     0
100
AcDbLine
 10
38.7255707179
 20
-19.4987361684
 30
0.0
 11
38.8680383426
 21
-19.0677795781
 31
0.0
  0
LINE
  5
158
330
1F
100
AcDbEntity
  8
1
  6
SLD-Gestrichelt
 62
   131
420
  8454143
370
     0
100
AcDbLine
 10
39.8010088739
 20
-15.4481825342
 30
0.0
 11
40.0010088739
 21
-14.8017723727
 31
0.0
  0
LINE
  5
159
330
1F
100
AcDbEntity
  8
1
  6
SLD-Gestrichelt
 62
   131
420
  8454143
370
     0
100
AcDbLine
 10
24.0010088739
 20
-15.4481825342
 30
0.0
 11
23.8010088739
 21
-14.8017723727
 31
0.0
  0
LINE
  5
15A
330
1F
100
AcDbEntity
  8
1
  6
SLD-Gestrichelt
 62
   131
420
  8454143
370
     0
100
AcDbLine
 10
25.0764470299
 20
-19.4987361684
 30
0.0
 11
24.0010088739
 21
-16.2455959428
 31
0.0
  0
LINE
  5
15B
330
1F
100
AcDbEntity
  8
1
  6
SLD-Gestrichelt
 62
   131
420
  8454143
370
     0
100
AcDbLine
 10
24.0010088739
 20
-16.2455959428
 30
0.0
 11
23.8010088739
 21
-15.5991857813
 31
0.0
  0
ARC
  5
15C
330
1F
100
AcDbEntity
  8
1
  6
SLD-Gestrichelt
 62
   131
420
  8454143
370
     0
100
AcDbCircle
 10
39.9133938583
 20
-14.8147356203
 30
0.0
 40
0.0885688248703351
100
AcDbArc
 50
8.4162473377
 51
70.8622971378
  0
LINE
  5
15D
330
1F
100
AcDbEntity
  8
1
  6
SLD-Gestrichelt
 62
   131
420
  8454143
370
     0
100
AcDbLine
 10
24.0010088739
 20
-16.2455959428
 30
0.0
 11
23.8595875177
 21
-15.6698964594
 31
0.0
  0
ARC
  5
15E
330
1F
100
AcDbEntity
  8
1
  6
SLD-Gestrichelt
 62
   131
420
  8454143
370
     0
100
AcDbCircle
 10
23.8886238894
 20
-15.5862225336
 30
0.0
 40
0.088568824870299
100
AcDbArc
 50
188.4162473377
 51
250.8622971378
  0
LINE
  5
15F
330
1F
100
AcDbEntity
  8
1
  6
SLD-Gestrichelt
 62
   131
420
  8454143
370
     0
100
AcDbLine
 10
39.8010088739
 20
-16.2455959428
 30
0.0
 11
39.9424302301
 21
-15.6698964594
 31
0.0
  0
ARC
  5
160
330
1F
100
AcDbEntity
  8
1
  6
SLD-Gestrichelt
 62
   131
420
  8454143
370
     0
100
AcDbCircle
 10
39.9133938583
 20
-15.5862225336
 30
0.0
 40
0.0885688248703455
100
AcDbArc
 50
289.1377028622
 51
351.5837526623
  0
LINE
  5
161
330
1F
100
AcDbEntity
  8
1
  6
SLD-Gestrichelt
 62
   131
420
  8454143
370
     0
100
AcDbLine
 10
32.2529612128
 20
-22.735040921
 30
0.0
 11
32.6984222825
 21
-19.7968892385
 31
0.0
  0
LINE
  5
162
330
1F
100
AcDbEntity
  8
1
  6
SLD-Gestrichelt
 62
   131
420
  8454143
370
     0
100
AcDbLine
 10
31.549056535
 20
-22.735040921
 30
0.0
 11
31.1035954653
 21
-19.7968892385
 31
0.0
  0
LINE
  5
163
330
1F
100
AcDbEntity
  8
1
  6
SLD-Gestrichelt
 62
   131
420
  8454143
370
     0
100
AcDbLine
 10
31.1035954653
 20
-19.7968892385
 30
0.0
 11
31.1035954653
 21
-19.250479077
 31
0.0
  0
LINE
  5
164
330
1F
100
AcDbEntity
  8
1
  6
SLD-Gestrichelt
 62
   131
420
  8454143
370
     0
100
AcDbLine
 10
31.1035954653
 20
-19.7968892385
 30
0.0
 11
30.9621741091
 21
-19.2211897551
 31
0.0
  0
LINE
  5
165
330
1F
100
AcDbEntity
  8
1
  6
SLD-Gestrichelt
 62
   131
420
  8454143
370
     0
100
AcDbLine
 10
32.6984222825
 20
-19.7968892385
 30
0.0
 11
32.6984222825
 21
-19.250479077
 31
0.0
  0
LINE
  5
166
330
1F
100
AcDbEntity
  8
1
  6
SLD-Gestrichelt
 62
   131
420
  8454143
370
     0
100
AcDbLine
 10
32.6984222825
 20
-19.7968892385
 30
0.0
 11
32.8398436387
 21
-19.2211897551
 31
0.0
  0
LINE
  5
167
330
1F
100
AcDbEntity
  8
1
  6
SLD-Gestrichelt
 62
   131
420
  8454143
370
     0
100
AcDbLine
 10
31.549056535
 20
7.664959079
 30
0.0
 11
32.2010088739
 21
7.664959079
 31
0.0
  0
LINE
  5
168
330
1F
100
AcDbEntity
  8
1
  6
SLD-Gestrichelt
 62
   131
420
  8454143
370
     0
100
AcDbLine
 10
31.549056535
 20
7.664959079
 30
0.0
 11
31.1035954653
 21
10.6031107615
 31
0.0
  0
LINE
  5
169
330
1F
100
AcDbEntity
  8
1
  6
SLD-Gestrichelt
 62
   131
420
  8454143
370
     0
100
AcDbLine
 10
31.1035954653
 20
10.6031107615
 30
0.0
 11
31.1035954653
 21
11.149520923
 31
0.0
  0
ARC
  5
16A
330
1F
100
AcDbEntity
  8
1
  6
SLD-Gestrichelt
 62
   131
420
  8454143
370
     0
100
AcDbCircle
 10
23.8886238894
 20
14.8137774664
 30
0.0
 40
0.0885688248703157
100
AcDbArc
 50
188.4162473377
 51
250.8622971378
  0
ARC
  5
16B
330
1F
100
AcDbEntity
  8
1
  6
SLD-Gestrichelt
 62
   131
420
  8454143
370
     0
100
AcDbCircle
 10
39.9133938583
 20
15.5852643797
 30
0.0
 40
0.0885688248703388
100
AcDbArc
 50
8.4162473377
 51
70.8622971378
  0
ARC
  5
16C
330
1F
100
AcDbEntity
  8
1
  6
SLD-Gestrichelt
 62
   131
420
  8454143
370
     0
100
AcDbCircle
 10
39.9133938583
 20
14.8137774664
 30
0.0
 40
0.0885688248703284
100
AcDbArc
 50
289.1377028622
 51
351.5837526623
  0
LWPOLYLINE
  5
16D
330
1F
100
AcDbEntity
  8
1
  6
SLD-Gestrichelt
 62
   131
420
  8454143
370
     0
100
AcDbPolyline
 90
       44
 70
   128
 43
0.0
 10
31.9010088739
 20
17.0686026682
 10
31.3567279045
 20
17.048684552
 10
30.824047339
 20
16.9893547235
 10
30.3143203389
 20
16.8918776949
 10
29.8384108502
 20
16.75833102
 10
29.4064620574
 20
16.5915610141
 10
29.027680199
 20
16.3951220905
 10
28.7101383528
 20
16.1732010038
 10
28.460604372
 20
15.9305276165
 10
28.28439664
 20
15.6722740908
 10
28.1852707189
 20
15.4039446521
 10
28.1653393054
 20
15.1312582764
 10
28.2250272031
 20
14.8600268006
 10
28.3630622681
 20
14.5960310526
 10
28.5765025225
 20
14.3448976434
 10
28.860798858
 20
14.1119790457
 10
29.2098919917
 20
13.9022395149
 10
29.6163416096
 20
13.7201492851
 10
30.0714849437
 20
13.5695892934
 10
30.565621404
 20
13.4537684645
 10
31.0882193298
 20
13.3751553184
 10
31.6281404537
 20
13.3354253578
 10
32.1738772941
 20
13.3354253578
 10
32.713798418
 20
13.3751553184
 10
33.2363963438
 20
13.4537684645
 10
33.7305328041
 20
13.5695892934
 10
34.1856761382
 20
13.7201492851
 10
34.5921257561
 20
13.9022395149
 10
34.9412188898
 20
14.1119790457
 10
35.2255152253
 20
14.3448976434
 10
35.4389554797
 20
14.5960310526
 10
35.5769905447
 20
14.8600268006
 10
35.6366784424
 20
15.1312582764
 10
35.6167470289
 20
15.4039446521
 10
35.5176211077
 20
15.6722740908
 10
35.3414133758
 20
15.9305276165
 10
35.091879395
 20
16.1732010038
 10
34.7743375488
 20
16.3951220905
 10
34.3955556904
 20
16.5915610141
 10
33.9636068976
 20
16.75833102
 10
33.4876974089
 20
16.8918776949
 10
32.9779704087
 20
16.9893547235
 10
32.4452898433
 20
17.048684552
 10
31.9010088739
 20
17.0686026682
  0
LINE
  5
16E
330
1F
100
AcDbEntity
  8
1
  6
SLD-Gestrichelt
 62
   131
420
  8454143
370
     0
100
AcDbLine
 10
31.1035954653
 20
10.6031107615
 30
0.0
 11
30.9621741091
 21
11.1788102449
 31
0.0
  0
LINE
  5
16F
330
1F
100
AcDbEntity
  8
1
  6
SLD-Gestrichelt
 62
   131
420
  8454143
370
     0
100
AcDbLine
 10
25.0764470299
 20
10.9012638316
 30
0.0
 11
31.549056535
 21
7.664959079
 31
0.0
  0
LINE
  5
170
330
1F
100
AcDbEntity
  8
1
  6
SLD-Gestrichelt
 62
   131
420
  8454143
370
     0
100
AcDbLine
 10
25.0764470299
 20
10.9012638316
 30
0.0
 11
24.0010088739
 21
14.1544040572
 31
0.0
  0
LINE
  5
171
330
1F
100
AcDbEntity
  8
1
  6
SLD-Gestrichelt
 62
   131
420
  8454143
370
     0
100
AcDbLine
 10
24.0010088739
 20
14.1544040572
 30
0.0
 11
23.8595875177
 21
14.7301035406
 31
0.0
  0
LWPOLYLINE
  5
172
330
1F
100
AcDbEntity
  8
1
  6
SLD-Gestrichelt
 62
   131
420
  8454143
370
     0
100
AcDbPolyline
 90
       43
 70
   128
 43
0.0
 10
31.9010088739
 20
16.5915082211
 10
31.3570046024
 20
16.571124479
 10
30.8251524873
 20
16.5104285917
 10
30.3173332261
 20
16.4107764051
 10
29.844890662
 20
16.2743939843
 10
29.418378381
 20
16.1043278872
 10
29.0473239629
 20
15.9043771095
 10
28.7400161501
 20
15.6790082211
 10
28.5033196913
 20
15.4332555906
 10
28.3425219944
 20
15.1726089256
 10
28.2612150142
 20
14.9028906419
 10
28.2612150142
 20
14.6301258003
 10
28.3425219944
 20
14.3604075167
 10
28.5033196913
 20
14.0997608517
 10
28.7400161501
 20
13.8540082211
 10
29.0473239629
 20
13.6286393327
 10
29.418378381
 20
13.428688555
 10
29.844890662
 20
13.258622458
 10
30.3173332261
 20
13.1222400372
 10
30.8251524873
 20
13.0225878506
 10
31.3570046024
 20
12.9618919633
 10
31.9010088739
 20
12.9415082211
 10
32.4450131454
 20
12.9618919633
 10
32.9768652605
 20
13.0225878506
 10
33.4846845217
 20
13.1222400372
 10
33.9571270858
 20
13.258622458
 10
34.3836393668
 20
13.428688555
 10
34.7546937849
 20
13.6286393327
 10
35.0620015977
 20
13.8540082211
 10
35.2986980564
 20
14.0997608517
 10
35.4594957534
 20
14.3604075167
 10
35.5408027336
 20
14.6301258003
 10
35.5408027336
 20
14.9028906419
 10
35.4594957534
 20
15.1726089256
 10
35.2986980564
 20
15.4332555906
 10
35.0620015977
 20
15.6790082211
 10
34.7546937849
 20
15.9043771095
 10
34.3836393668
 20
16.1043278872
 10
33.9571270858
 20
16.2743939843
 10
33.4846845217
 20
16.4107764051
 10
32.9768652605
 20
16.5104285917
 10
32.4450131454
 20
16.571124479
 10
31.9010088739
 20
16.5915082211
  0
LWPOLYLINE
  5
173
330
1F
100
AcDbEntity
  8
1
  6
SLD-Gestrichelt
 62
   131
420
  8454143
370
     0
100
AcDbPolyline
 90
       38
 70
   128
 43
0.0
 10
31.9010088739
 20
15.179096168
 10
31.4263109197
 20
15.1588947929
 10
30.9652691614
 20
15.0988718243
 10
30.531146931
 20
15.0007540139
 10
30.1364331345
 20
14.8673640323
 10
29.7924829693
 20
14.7025392664
 10
29.5091912554
 20
14.5110214247
 10
29.2947077796
 20
14.2983201268
 10
29.155202841
 20
14.0705544018
 10
29.0946897427
 20
13.8342766548
 10
29.1149093363
 20
13.5962841665
 10
29.215279941
 20
13.3634235475
 10
29.3929140772
 20
13.1423937737
 10
29.6427015343
 20
12.9395534694
 10
29.9574563818
 20
12.7607379807
 10
30.3281236959
 20
12.6110915039
 10
30.7440400528
 20
12.4949190954
 10
31.1932402962
 20
12.415562824
 10
31.6628017529
 20
12.3753056252
 10
32.1392159949
 20
12.3753056252
 10
32.6087774516
 20
12.415562824
 10
33.057977695
 20
12.4949190954
 10
33.4738940519
 20
12.6110915039
 10
33.844561366
 20
12.7607379807
 10
34.1593162135
 20
12.9395534694
 10
34.4091036706
 20
13.1423937737
 10
34.5867378068
 20
13.3634235475
 10
34.6871084115
 20
13.5962841665
 10
34.7073280051
 20
13.8342766548
 10
34.6468149068
 20
14.0705544018
 10
34.5073099682
 20
14.2983201268
 10
34.2928264924
 20
14.5110214247
 10
34.0095347785
 20
14.7025392664
 10
33.6655846133
 20
14.8673640323
 10
33.2708708168
 20
15.0007540139
 10
32.8367485864
 20
15.0988718243
 10
32.3757068281
 20
15.1588947929
 10
31.9010088739
 20
15.179096168
  0
LWPOLYLINE
  5
174
330
1F
100
AcDbEntity
  8
1
  6
SLD-Gestrichelt
 62
   131
420
  8454143
370
     0
100
AcDbPolyline
 90
       38
 70
   128
 43
0.0
 10
31.9010088739
 20
14.888859918
 10
31.436256618
 20
14.8690817947
 10
30.9848744384
 20
14.8103164055
 10
30.5598477784
 20
14.7142543236
 10
30.1734038813
 20
14.5836590802
 10
29.8366600344
 20
14.4222876627
 10
29.5593037451
 20
14.2347824329
 10
29.3493140488
 20
14.026537575
 10
29.2127319668
 20
13.8035439142
 10
29.1534867168
 20
13.5722165724
 10
29.1732826769
 20
13.3392104159
 10
29.2715503534
 20
13.1112286075
 10
29.445462764
 20
12.8948297689
 10
29.6900167654
 20
12.6962393006
 10
29.9981769842
 20
12.5211702888
 10
30.361078212
 20
12.3746591503
 10
30.7682804412
 20
12.2609207437
 10
31.2080692051
 20
12.183227116
 10
31.6677925816
 20
12.1438133713
 10
32.1342251662
 20
12.1438133713
 10
32.5939485427
 20
12.183227116
 10
33.0337373066
 20
12.2609207437
 10
33.4409395358
 20
12.3746591503
 10
33.8038407636
 20
12.5211702888
 10
34.1120009824
 20
12.6962393006
 10
34.3565549838
 20
12.8948297689
 10
34.5304673944
 20
13.1112286075
 10
34.6287350709
 20
13.3392104159
 10
34.648531031
 20
13.5722165724
 10
34.589285781
 20
13.8035439142
 10
34.452703699
 20
14.026537575
 10
34.2427140027
 20
14.2347824329
 10
33.9653577133
 20
14.4222876627
 10
33.6286138665
 20
14.5836590802
 10
33.2421699694
 20
14.7142543236
 10
32.8171433094
 20
14.8103164055
 10
32.3657611298
 20
14.8690817947
 10
31.9010088739
 20
14.888859918
  0
LWPOLYLINE
  5
175
330
1F
100
AcDbEntity
  8
1
  6
SLD-Gestrichelt
 62
   131
420
  8454143
370
     0
100
AcDbPolyline
 90
       38
 70
   128
 43
0.0
 10
31.9010088739
 20
12.7120476221
 10
31.436256618
 20
12.6922694989
 10
30.9848744384
 20
12.6335041097
 10
30.5598477784
 20
12.5374420277
 10
30.1734038813
 20
12.4068467843
 10
29.8366600344
 20
12.2454753668
 10
29.5593037451
 20
12.057970137
 10
29.3493140488
 20
11.8497252791
 10
29.2127319668
 20
11.6267316184
 10
29.1534867168
 20
11.3954042765
 10
29.1732826769
 20
11.16239812
 10
29.2715503534
 20
10.9344163116
 10
29.445462764
 20
10.718017473
 10
29.6900167654
 20
10.5194270047
 10
29.9981769842
 20
10.344357993
 10
30.361078212
 20
10.1978468544
 10
30.7682804412
 20
10.0841084479
 10
31.2080692051
 20
10.0064148201
 10
31.6677925816
 20
9.9670010754
 10
32.1342251662
 20
9.9670010754
 10
32.5939485427
 20
10.0064148201
 10
33.0337373066
 20
10.0841084479
 10
33.4409395358
 20
10.1978468544
 10
33.8038407636
 20
10.344357993
 10
34.1120009824
 20
10.5194270047
 10
34.3565549838
 20
10.718017473
 10
34.5304673944
 20
10.9344163116
 10
34.6287350709
 20
11.16239812
 10
34.648531031
 20
11.3954042765
 10
34.589285781
 20
11.6267316184
 10
34.452703699
 20
11.8497252791
 10
34.2427140027
 20
12.057970137
 10
33.9653577133
 20
12.2454753668
 10
33.6286138665
 20
12.4068467843
 10
33.2421699694
 20
12.5374420277
 10
32.8171433094
 20
12.6335041097
 10
32.3657611298
 20
12.6922694989
 10
31.9010088739
 20
12.7120476221
  0
LINE
  5
176
330
1F
100
AcDbEntity
  8
1
  6
SLD-Gestrichelt
 62
   131
420
  8454143
370
     0
100
AcDbLine
 10
39.8010088739
 20
14.1544040572
 30
0.0
 11
40.0010088739
 21
14.8008142187
 31
0.0
  0
LINE
  5
177
330
1F
100
AcDbEntity
  8
1
  6
SLD-Gestrichelt
 62
   131
420
  8454143
370
     0
100
AcDbLine
 10
24.0010088739
 20
14.1544040572
 30
0.0
 11
23.8010088739
 21
14.8008142187
 31
0.0
  0
LINE
  5
178
330
1F
100
AcDbEntity
  8
1
  6
SLD-Gestrichelt
 62
   131
420
  8454143
370
     0
100
AcDbLine
 10
38.7255707179
 20
10.9012638316
 30
0.0
 11
38.7255707179
 21
11.2532161705
 31
0.0
  0
LINE
  5
179
330
1F
100
AcDbEntity
  8
1
  6
SLD-Gestrichelt
 62
   131
420
  8454143
370
     0
100
AcDbLine
 10
25.0764470299
 20
11.2532161705
 30
0.0
 11
25.0764470299
 21
10.9012638316
 31
0.0
  0
LWPOLYLINE
  5
17A
330
1F
100
AcDbEntity
  8
1
  6
SLD-Gestrichelt
 62
   131
420
  8454143
370
     0
100
AcDbPolyline
 90
       42
 70
   128
 43
0.0
 10
31.9010088739
 20
12.8120476221
 10
31.3713745906
 20
12.791716412
 10
30.8541544861
 20
12.7311993279
 10
30.3614717611
 20
12.631914839
 10
29.9048744812
 20
12.4961900896
 10
29.4950648997
 20
12.3272063528
 10
29.1416486057
 20
12.1289244641
 10
28.8529093776
 20
11.9059919829
 10
28.6356150183
 20
11.6636342577
 10
28.4948587234
 20
11.4075319482
 10
28.433939701
 20
11.1436878753
 10
28.4542858416
 20
10.8782863206
 10
28.5554202487
 20
10.6175480715
 10
28.7349724175
 20
10.3675846117
 10
28.9887337976
 20
10.1342548727
 10
29.310756437
 20
9.9230279058
 10
29.6934923982
 20
9.7388546922
 10
30.1279706746
 20
9.5860520959
 10
30.6040074636
 20
9.4682016802
 10
31.1104448664
 20
9.388065759
 10
31.6354124195
 20
9.3475226503
 10
32.1666053283
 20
9.3475226503
 10
32.6915728814
 20
9.388065759
 10
33.1980102842
 20
9.4682016802
 10
33.6740470732
 20
9.5860520959
 10
34.1085253496
 20
9.7388546922
 10
34.4912613108
 20
9.9230279058
 10
34.8132839502
 20
10.1342548727
 10
35.0670453302
 20
10.3675846117
 10
35.2465974991
 20
10.6175480715
 10
35.3477319062
 20
10.8782863206
 10
35.3680780468
 20
11.1436878753
 10
35.3071590244
 20
11.4075319482
 10
35.1664027295
 20
11.6636342577
 10
34.9491083702
 20
11.9059919829
 10
34.6603691421
 20
12.1289244641
 10
34.3069528481
 20
12.3272063528
 10
33.8971432666
 20
12.4961900896
 10
33.4405459867
 20
12.631914839
 10
32.9478632617
 20
12.7311993279
 10
32.4306431571
 20
12.791716412
 10
31.9010088739
 20
12.8120476221
  0
LWPOLYLINE
  5
17B
330
1F
100
AcDbEntity
  8
1
  6
SLD-Gestrichelt
 62
   131
420
  8454143
370
     0
100
AcDbPolyline
 90
       39
 70
   128
 43
0.0
 10
31.9010088739
 20
12.8120476221
 10
31.4154548326
 20
12.7919305447
 10
30.9431454397
 20
12.7321280537
 10
30.4969640644
 20
12.6342714052
 10
30.0890813715
 20
12.5010298735
 10
29.7306233374
 20
12.3360379403
 10
29.431367763
 20
12.1437961554
 10
29.1994775603
 20
11.9295483735
 10
29.0412780894
 20
11.6991387157
 10
28.9610846195
 20
11.4588521567
 10
28.9610846195
 20
11.2152430876
 10
29.0412780894
 20
10.9749565286
 10
29.1994775603
 20
10.7445468708
 10
29.431367763
 20
10.5302990889
 10
29.7306233374
 20
10.338057304
 10
30.0890813715
 20
10.1730653708
 10
30.4969640644
 20
10.0398238391
 10
30.9431454397
 20
9.9419671906
 10
31.4154548326
 20
9.8821646996
 10
31.9010088739
 20
9.8620476221
 10
32.3865629152
 20
9.8821646996
 10
32.858872308
 20
9.9419671906
 10
33.3050536834
 20
10.0398238391
 10
33.7129363763
 20
10.1730653708
 10
34.0713944104
 20
10.338057304
 10
34.3706499848
 20
10.5302990889
 10
34.6025401875
 20
10.7445468708
 10
34.7607396584
 20
10.9749565286
 10
34.8409331283
 20
11.2152430876
 10
34.8409331283
 20
11.4588521567
 10
34.7607396584
 20
11.6991387157
 10
34.6025401875
 20
11.9295483735
 10
34.3706499848
 20
12.1437961554
 10
34.0713944104
 20
12.3360379403
 10
33.7129363763
 20
12.5010298735
 10
33.3050536834
 20
12.6342714052
 10
32.858872308
 20
12.7321280537
 10
32.3865629152
 20
12.7919305447
 10
31.9010088739
 20
12.8120476221
  0
LINE
  5
17C
330
1F
100
AcDbEntity
  8
1
  6
SLD-Gestrichelt
 62
   131
420
  8454143
370
     0
100
AcDbLine
 10
39.8010088739
 20
14.9518174658
 30
0.0
 11
40.0010088739
 21
15.5982276273
 31
0.0
  0
LINE
  5
17D
330
1F
100
AcDbEntity
  8
1
  6
SLD-Gestrichelt
 62
   131
420
  8454143
370
     0
100
AcDbLine
 10
24.0010088739
 20
14.9518174658
 30
0.0
 11
23.8010088739
 21
15.5982276273
 31
0.0
  0
LINE
  5
17E
330
1F
100
AcDbEntity
  8
1
  6
SLD-Gestrichelt
 62
   131
420
  8454143
370
     0
100
AcDbLine
 10
39.8010088739
 20
14.9518174658
 30
0.0
 11
39.9424302301
 21
15.6689383054
 31
0.0
  0
LINE
  5
17F
330
1F
100
AcDbEntity
  8
1
  6
SLD-Gestrichelt
 62
   131
420
  8454143
370
     0
100
AcDbLine
 10
38.7255707179
 20
11.2532161705
 30
0.0
 11
39.8010088739
 21
14.9518174658
 31
0.0
  0
LINE
  5
180
330
1F
100
AcDbEntity
  8
1
  6
SLD-Gestrichelt
 62
   131
420
  8454143
370
     0
100
AcDbLine
 10
38.7255707179
 20
11.2532161705
 30
0.0
 11
32.2529612128
 21
14.489520923
 31
0.0
  0
LINE
  5
181
330
1F
100
AcDbEntity
  8
1
  6
SLD-Gestrichelt
 62
   131
420
  8454143
370
     0
100
AcDbLine
 10
24.0010088739
 20
14.9518174658
 30
0.0
 11
23.8595875177
 21
15.6689383054
 31
0.0
  0
LINE
  5
182
330
1F
100
AcDbEntity
  8
1
  6
SLD-Gestrichelt
 62
   131
420
  8454143
370
     0
100
AcDbLine
 10
25.0764470299
 20
11.2532161705
 30
0.0
 11
24.0010088739
 21
14.9518174658
 31
0.0
  0
LINE
  5
183
330
1F
100
AcDbEntity
  8
1
  6
SLD-Gestrichelt
 62
   131
420
  8454143
370
     0
100
AcDbLine
 10
31.549056535
 20
14.489520923
 30
0.0
 11
25.0764470299
 21
11.2532161705
 31
0.0
  0
LINE
  5
184
330
1F
100
AcDbEntity
  8
1
  6
SLD-Gestrichelt
 62
   131
420
  8454143
370
     0
100
AcDbLine
 10
32.6984222825
 20
18.5031107615
 30
0.0
 11
32.8398436387
 21
19.2202316011
 31
0.0
  0
LINE
  5
185
330
1F
100
AcDbEntity
  8
1
  6
SLD-Gestrichelt
 62
   131
420
  8454143
370
     0
100
AcDbLine
 10
31.1035954653
 20
18.5031107615
 30
0.0
 11
30.9621741091
 21
19.2202316011
 31
0.0
  0
LINE
  5
186
330
1F
100
AcDbEntity
  8
1
  6
SLD-Gestrichelt
 62
   131
420
  8454143
370
     0
100
AcDbLine
 10
31.1035954653
 20
18.5031107615
 30
0.0
 11
31.1035954653
 21
19.249520923
 31
0.0
  0
LINE
  5
187
330
1F
100
AcDbEntity
  8
1
  6
SLD-Gestrichelt
 62
   131
420
  8454143
370
     0
100
AcDbLine
 10
32.6984222825
 20
18.5031107615
 30
0.0
 11
32.6984222825
 21
19.249520923
 31
0.0
  0
LINE
  5
188
330
1F
100
AcDbEntity
  8
1
  6
SLD-Gestrichelt
 62
   131
420
  8454143
370
     0
100
AcDbLine
 10
31.549056535
 20
14.489520923
 30
0.0
 11
31.1035954653
 21
18.5031107615
 31
0.0
  0
LINE
  5
189
330
1F
100
AcDbEntity
  8
1
  6
SLD-Gestrichelt
 62
   131
420
  8454143
370
     0
100
AcDbLine
 10
32.2529612128
 20
14.489520923
 30
0.0
 11
32.6984222825
 21
18.5031107615
 31
0.0
  0
LINE
  5
18A
330
1F
100
AcDbEntity
  8
1
  6
SLD-Gestrichelt
 62
   131
420
  8454143
370
     0
100
AcDbLine
 10
32.2529612128
 20
14.489520923
 30
0.0
 11
31.549056535
 21
14.489520923
 31
0.0
  0
LINE
  5
18B
330
1F
100
AcDbEntity
  8
1
  6
SLD-Gestrichelt
 62
   131
420
  8454143
370
     0
100
AcDbLine
 10
32.2010088739
 20
22.299520923
 30
0.0
 11
32.6984222825
 21
22.299520923
 31
0.0
  0
LINE
  5
18C
330
1F
100
AcDbEntity
  8
1
  6
SLD-Gestrichelt
 62
   131
420
  8454143
370
     0
100
AcDbLine
 10
23.8595875177
 20
29.4606861582
 30
0.0
 11
29.8207527528
 21
23.499520923
 31
0.0
  0
ARC
  5
18D
330
1F
100
AcDbEntity
  8
1
  6
SLD-Gestrichelt
 62
   131
420
  8454143
370
     0
100
AcDbCircle
 10
24.0010088739
 20
29.6021075144
 30
0.0
 40
0.1999999999999946
100
AcDbArc
 50
180.0
 51
225.0
  0
LINE
  5
18E
330
1F
100
AcDbEntity
  8
1
  6
SLD-Gestrichelt
 62
   131
420
  8454143
370
     0
100
AcDbLine
 10
23.8010088739
 20
30.6570719205
 30
0.0
 11
23.8010088739
 21
29.6021075144
 31
0.0
  0
LINE
  5
18F
330
1F
100
AcDbEntity
  8
1
  6
SLD-Gestrichelt
 62
   131
420
  8454143
370
     0
100
AcDbLine
 10
32.8398436387
 20
22.3580995668
 30
0.0
 11
38.743646257
 21
28.2619021851
 31
0.0
  0
ARC
  5
190
330
1F
100
AcDbEntity
  8
1
  6
SLD-Gestrichelt
 62
   131
420
  8454143
370
     0
100
AcDbCircle
 10
32.6984222825
 20
22.499520923
 30
0.0
 40
0.2000000000000028
100
AcDbArc
 50
270.0
 51
315.0
  0
ARC
  5
191
330
1F
100
AcDbEntity
  8
1
  6
SLD-Gestrichelt
 62
   131
420
  8454143
370
     0
100
AcDbCircle
 10
31.9010088739
 20
30.399520923
 30
0.0
 40
3.738163490354236
100
AcDbArc
 50
172.4208102238
 51
353.039398777
  0
LINE
  5
192
330
1F
100
AcDbEntity
  8
1
  6
SLD-Gestrichelt
 62
   131
420
  8454143
370
     0
100
AcDbLine
 10
32.6984222825
 20
22.499520923
 30
0.0
 11
32.8398436387
 21
22.3580995668
 31
0.0
  0
LINE
  5
193
330
1F
100
AcDbEntity
  8
1
  6
SLD-Gestrichelt
 62
   131
420
  8454143
370
     0
100
AcDbLine
 10
31.1035954653
 20
22.499520923
 30
0.0
 11
30.9621741091
 21
22.3580995668
 31
0.0
  0
LINE
  5
194
330
1F
100
AcDbEntity
  8
1
  6
SLD-Gestrichelt
 62
   131
420
  8454143
370
     0
100
AcDbLine
 10
31.1035954653
 20
22.499520923
 30
0.0
 11
31.1035954653
 21
22.299520923
 31
0.0
  0
LINE
  5
195
330
1F
100
AcDbEntity
  8
1
  6
SLD-Gestrichelt
 62
   131
420
  8454143
370
     0
100
AcDbLine
 10
32.6984222825
 20
22.499520923
 30
0.0
 11
32.6984222825
 21
22.299520923
 31
0.0
  0
LINE
  5
196
330
1F
100
AcDbEntity
  8
1
  6
SLD-Gestrichelt
 62
   131
420
  8454143
370
     0
100
AcDbLine
 10
32.2529612128
 20
23.574959079
 30
0.0
 11
32.6984222825
 21
22.499520923
 31
0.0
  0
LINE
  5
197
330
1F
100
AcDbEntity
  8
1
  6
SLD-Gestrichelt
 62
   131
420
  8454143
370
     0
100
AcDbLine
 10
31.549056535
 20
23.574959079
 30
0.0
 11
31.1035954653
 21
22.499520923
 31
0.0
  0
ARC
  5
198
330
1F
100
AcDbEntity
  8
1
  6
SLD-Gestrichelt
 62
   131
420
  8454143
370
     0
100
AcDbCircle
 10
31.9010088739
 20
30.399520923
 30
0.0
 40
3.650000000000004
100
AcDbArc
 50
172.1296900684
 51
353.6509285384
  0
LINE
  5
199
330
1F
100
AcDbEntity
  8
1
  6
SLD-Gestrichelt
 62
   131
420
  8454143
370
     0
100
AcDbLine
 10
39.8010088739
 20
29.6021075144
 30
0.0
 11
39.9424302301
 21
29.4606861582
 31
0.0
  0
LINE
  5
19A
330
1F
100
AcDbEntity
  8
1
  6
SLD-Gestrichelt
 62
   131
420
  8454143
370
     0
100
AcDbLine
 10
24.0010088739
 20
29.6021075144
 30
0.0
 11
23.8595875177
 21
29.4606861582
 31
0.0
  0
LINE
  5
19B
330
1F
100
AcDbEntity
  8
1
  6
SLD-Gestrichelt
 62
   131
420
  8454143
370
     0
100
AcDbLine
 10
24.0010088739
 20
29.6021075144
 30
0.0
 11
23.8010088739
 21
29.6021075144
 31
0.0
  0
LINE
  5
19C
330
1F
100
AcDbEntity
  8
1
  6
SLD-Gestrichelt
 62
   131
420
  8454143
370
     0
100
AcDbLine
 10
25.0764470299
 20
30.0475685841
 30
0.0
 11
24.0010088739
 21
29.6021075144
 31
0.0
  0
LINE
  5
19D
330
1F
100
AcDbEntity
  8
1
  6
SLD-Gestrichelt
 62
   131
420
  8454143
370
     0
100
AcDbLine
 10
39.8010088739
 20
29.6021075144
 30
0.0
 11
40.0010088739
 21
29.6021075144
 31
0.0
  0
LINE
  5
19E
330
1F
100
AcDbEntity
  8
1
  6
SLD-Gestrichelt
 62
   131
420
  8454143
370
     0
100
AcDbLine
 10
38.7255707179
 20
30.0475685841
 30
0.0
 11
39.8010088739
 21
29.6021075144
 31
0.0
  0
LINE
  5
19F
330
1F
100
AcDbEntity
  8
1
  6
SLD-Gestrichelt
 62
   131
420
  8454143
370
     0
100
AcDbLine
 10
38.7255707179
 20
30.7514732619
 30
0.0
 11
39.8010088739
 21
31.1969343316
 31
0.0
  0
LINE
  5
1A0
330
1F
100
AcDbEntity
  8
1
  6
SLD-Gestrichelt
 62
   131
420
  8454143
370
     0
100
AcDbLine
 10
25.0764470299
 20
30.7514732619
 30
0.0
 11
24.0010088739
 21
31.1969343316
 31
0.0
  0
LINE
  5
1A1
330
1F
100
AcDbEntity
  8
1
  6
SLD-Gestrichelt
 62
   131
420
  8454143
370
     0
100
AcDbLine
 10
39.8010088739
 20
31.1969343316
 30
0.0
 11
39.9424302301
 21
31.3383556879
 31
0.0
  0
LINE
  5
1A2
330
1F
100
AcDbEntity
  8
1
  6
SLD-Gestrichelt
 62
   131
420
  8454143
370
     0
100
AcDbLine
 10
39.8010088739
 20
31.1969343316
 30
0.0
 11
40.0010088739
 21
31.1969343316
 31
0.0
  0
LINE
  5
1A3
330
1F
100
AcDbEntity
  8
1
  6
SLD-Gestrichelt
 62
   131
420
  8454143
370
     0
100
AcDbLine
 10
24.0010088739
 20
31.1969343316
 30
0.0
 11
23.8595875177
 21
31.3383556879
 31
0.0
  0
LINE
  5
1A4
330
1F
100
AcDbEntity
  8
1
  6
SLD-Gestrichelt
 62
   131
420
  8454143
370
     0
100
AcDbLine
 10
24.0010088739
 20
31.1969343316
 30
0.0
 11
23.8010088739
 21
31.1969343316
 31
0.0
  0
LINE
  5
1A5
330
1F
100
AcDbEntity
  8
1
  6
SLD-Gestrichelt
 62
   131
420
  8454143
370
     0
100
AcDbLine
 10
31.549056535
 20
37.2240827671
 30
0.0
 11
31.1035954653
 21
38.299520923
 31
0.0
  0
LINE
  5
1A6
330
1F
100
AcDbEntity
  8
1
  6
SLD-Gestrichelt
 62
   131
420
  8454143
370
     0
100
AcDbLine
 10
32.2529612128
 20
37.2240827671
 30
0.0
 11
32.6984222825
 21
38.299520923
 31
0.0
  0
LINE
  5
1A7
330
1F
100
AcDbEntity
  8
1
  6
SLD-Gestrichelt
 62
   131
420
  8454143
370
     0
100
AcDbLine
 10
31.1035954653
 20
38.299520923
 30
0.0
 11
31.1035954653
 21
38.499520923
 31
0.0
  0
LINE
  5
1A8
330
1F
100
AcDbEntity
  8
1
  6
SLD-Gestrichelt
 62
   131
420
  8454143
370
     0
100
AcDbLine
 10
31.1035954653
 20
38.299520923
 30
0.0
 11
30.9621741091
 21
38.4409422793
 31
0.0
  0
LINE
  5
1A9
330
1F
100
AcDbEntity
  8
1
  6
SLD-Gestrichelt
 62
   131
420
  8454143
370
     0
100
AcDbLine
 10
32.6984222825
 20
38.299520923
 30
0.0
 11
32.6984222825
 21
38.499520923
 31
0.0
  0
LINE
  5
1AA
330
1F
100
AcDbEntity
  8
1
  6
SLD-Gestrichelt
 62
   131
420
  8454143
370
     0
100
AcDbLine
 10
32.6984222825
 20
38.299520923
 30
0.0
 11
32.8398436387
 21
38.4409422793
 31
0.0
  0
ARC
  5
1AB
330
1F
100
AcDbEntity
  8
1
  6
SLD-Gestrichelt
 62
   131
420
  8454143
370
     0
100
AcDbCircle
 10
31.9010088739
 20
30.399520923
 30
0.0
 40
2.75
100
AcDbArc
 50
168.7711173437
 51
1.1018556501
  0
CIRCLE
  5
1AC
330
1F
100
AcDbEntity
  8
1
  6
SLD-Gestrichelt
 62
   131
420
  8454143
370
     0
100
AcDbCircle
 10
31.9010088739
 20
30.399520923
 30
0.0
 40
2.950000000000003
  0
CIRCLE
  5
1AD
330
1F
100
AcDbEntity
  8
1
  6
SLD-Gestrichelt
 62
   131
420
  8454143
370
     0
100
AcDbCircle
 10
31.9010088739
 20
30.399520923
 30
0.0
 40
3.469615242270663
  0
LINE
  5
1AE
330
1F
100
AcDbEntity
  8
1
  6
SLD-Gestrichelt
 62
   131
420
  8454143
370
     0
100
AcDbLine
 10
32.2529612128
 20
37.2240827671
 30
0.0
 11
31.549056535
 21
37.2240827671
 31
0.0
  0
LINE
  5
1AF
330
1F
100
AcDbEntity
  8
1
  6
SLD-Gestrichelt
 62
   131
420
  8454143
370
     0
100
AcDbLine
 10
31.549056535
 20
37.2240827671
 30
0.0
 11
25.0764470299
 21
30.7514732619
 31
0.0
  0
LINE
  5
1B0
330
1F
100
AcDbEntity
  8
1
  6
SLD-Gestrichelt
 62
   131
420
  8454143
370
     0
100
AcDbLine
 10
38.7255707179
 20
30.7514732619
 30
0.0
 11
32.2529612128
 21
37.2240827671
 31
0.0
  0
LINE
  5
1B1
330
1F
100
AcDbEntity
  8
1
  6
SLD-Gestrichelt
 62
   131
420
  8454143
370
     0
100
AcDbLine
 10
38.7255707179
 20
30.0475685841
 30
0.0
 11
38.7255707179
 21
30.7514732619
 31
0.0
  0
LINE
  5
1B2
330
1F
100
AcDbEntity
  8
1
  6
SLD-Gestrichelt
 62
   131
420
  8454143
370
     0
100
AcDbLine
 10
25.0764470299
 20
30.7514732619
 30
0.0
 11
25.0764470299
 21
30.0475685841
 31
0.0
  0
LINE
  5
1B3
330
1F
100
AcDbEntity
  8
1
  6
SLD-Gestrichelt
 62
   131
420
  8454143
370
     0
100
AcDbLine
 10
31.549056535
 20
23.574959079
 30
0.0
 11
32.2529612128
 21
23.574959079
 31
0.0
  0
LINE
  5
1B4
330
1F
100
AcDbEntity
  8
1
  6
SLD-Gestrichelt
 62
   131
420
  8454143
370
     0
100
AcDbLine
 10
32.2529612128
 20
23.574959079
 30
0.0
 11
38.7255707179
 21
30.0475685841
 31
0.0
  0
LINE
  5
1B5
330
1F
100
AcDbEntity
  8
1
  6
SLD-Gestrichelt
 62
   131
420
  8454143
370
     0
100
AcDbLine
 10
25.0764470299
 20
30.0475685841
 30
0.0
 11
31.549056535
 21
23.574959079
 31
0.0
  0
LINE
  5
1B6
330
1F
100
AcDbEntity
  8
1
  6
SLD-Gestrichelt
 62
   131
420
  8454143
370
     0
100
AcDbLine
 10
24.0010088739
 20
16.2446377888
 30
0.0
 11
23.8595875177
 21
15.6689383054
 31
0.0
  0
LINE
  5
1B7
330
1F
100
AcDbEntity
  8
1
  6
SLD-Gestrichelt
 62
   131
420
  8454143
370
     0
100
AcDbLine
 10
25.0764470299
 20
19.4977780145
 30
0.0
 11
24.0010088739
 21
16.2446377888
 31
0.0
  0
LINE
  5
1B8
330
1F
100
AcDbEntity
  8
1
  6
SLD-Gestrichelt
 62
   131
420
  8454143
370
     0
100
AcDbLine
 10
29.7475695837
 20
21.8333392914
 30
0.0
 11
25.0764470299
 21
19.4977780145
 31
0.0
  0
LWPOLYLINE
  5
1B9
330
1F
100
AcDbEntity
  8
1
  6
SLD-Gestrichelt
 62
   131
420
  8454143
370
     0
100
AcDbPolyline
 90
       12
 70
   128
 43
0.0
 10
31.9010088739
 20
17.4575336249
 10
31.3570046024
 20
17.4371498828
 10
30.8251524873
 20
17.3764539955
 10
30.3173332261
 20
17.2768018088
 10
29.844890662
 20
17.140419388
 10
29.418378381
 20
16.970353291
 10
29.0473239629
 20
16.7704025133
 10
28.7400161501
 20
16.5450336249
 10
28.5033196913
 20
16.2992809944
 10
28.3425219944
 20
16.0386343294
 10
28.2612150142
 20
15.7689160457
 10
28.2514531297
 20
15.6040605227
  0
LWPOLYLINE
  5
1BA
330
1F
100
AcDbEntity
  8
1
  6
SLD-Gestrichelt
 62
   131
420
  8454143
370
     0
100
AcDbPolyline
 90
       12
 70
   128
 43
0.0
 10
35.5505646181
 20
15.6040605227
 10
35.5408027336
 20
15.7689160457
 10
35.4594957534
 20
16.0386343294
 10
35.2986980564
 20
16.2992809944
 10
35.0620015977
 20
16.5450336249
 10
34.7546937849
 20
16.7704025133
 10
34.3836393668
 20
16.970353291
 10
33.9571270858
 20
17.140419388
 10
33.4846845217
 20
17.2768018088
 10
32.9768652605
 20
17.3764539955
 10
32.4450131454
 20
17.4371498828
 10
31.9010088739
 20
17.4575336249
  0
LWPOLYLINE
  5
1BB
330
1F
100
AcDbEntity
  8
1
  6
SLD-Gestrichelt
 62
   131
420
  8454143
370
     0
100
AcDbPolyline
 90
       38
 70
   128
 43
0.0
 10
31.9010088739
 20
20.4369942239
 10
31.436256618
 20
20.4172161006
 10
30.9848744384
 20
20.3584507114
 10
30.5598477784
 20
20.2623886295
 10
30.1734038813
 20
20.1317933861
 10
29.8366600344
 20
19.9704219686
 10
29.5593037451
 20
19.7829167388
 10
29.3493140488
 20
19.5746718809
 10
29.2127319668
 20
19.3516782201
 10
29.1534867168
 20
19.1203508783
 10
29.1732826769
 20
18.8873447218
 10
29.2715503534
 20
18.6593629134
 10
29.445462764
 20
18.4429640748
 10
29.6900167654
 20
18.2443736065
 10
29.9981769842
 20
18.0693045947
 10
30.361078212
 20
17.9227934562
 10
30.7682804412
 20
17.8090550496
 10
31.2080692051
 20
17.7313614219
 10
31.6677925816
 20
17.6919476772
 10
32.1342251662
 20
17.6919476772
 10
32.5939485427
 20
17.7313614219
 10
33.0337373066
 20
17.8090550496
 10
33.4409395358
 20
17.9227934562
 10
33.8038407636
 20
18.0693045947
 10
34.1120009824
 20
18.2443736065
 10
34.3565549838
 20
18.4429640748
 10
34.5304673944
 20
18.6593629134
 10
34.6287350709
 20
18.8873447218
 10
34.648531031
 20
19.1203508783
 10
34.589285781
 20
19.3516782201
 10
34.452703699
 20
19.5746718809
 10
34.2427140027
 20
19.7829167388
 10
33.9653577133
 20
19.9704219686
 10
33.6286138665
 20
20.1317933861
 10
33.2421699694
 20
20.2623886295
 10
32.8171433094
 20
20.3584507114
 10
32.3657611298
 20
20.4172161006
 10
31.9010088739
 20
20.4369942239
  0
LINE
  5
1BC
330
1F
100
AcDbEntity
  8
1
  6
SLD-Gestrichelt
 62
   131
420
  8454143
370
     0
100
AcDbLine
 10
24.0010088739
 20
16.2446377888
 30
0.0
 11
23.8010088739
 21
15.5982276273
 31
0.0
  0
LINE
  5
1BD
330
1F
100
AcDbEntity
  8
1
  6
SLD-Gestrichelt
 62
   131
420
  8454143
370
     0
100
AcDbLine
 10
39.8010088739
 20
16.2446377888
 30
0.0
 11
40.0010088739
 21
15.5982276273
 31
0.0
  0
LINE
  5
1BE
330
1F
100
AcDbEntity
  8
1
  6
SLD-Gestrichelt
 62
   131
420
  8454143
370
     0
100
AcDbLine
 10
25.0764470299
 20
19.4977780145
 30
0.0
 11
25.0764470299
 21
19.1458256756
 31
0.0
  0
LINE
  5
1BF
330
1F
100
AcDbEntity
  8
1
  6
SLD-Gestrichelt
 62
   131
420
  8454143
370
     0
100
AcDbLine
 10
38.7255707179
 20
19.1458256756
 30
0.0
 11
38.7255707179
 21
19.4977780145
 31
0.0
  0
LWPOLYLINE
  5
1C0
330
1F
100
AcDbEntity
  8
1
  6
SLD-Gestrichelt
 62
   131
420
  8454143
370
     0
100
AcDbPolyline
 90
       42
 70
   128
 43
0.0
 10
31.9010088739
 20
21.0566094662
 10
31.3713745906
 20
21.036278256
 10
30.8541544861
 20
20.9757611719
 10
30.3614717611
 20
20.8764766831
 10
29.9048744812
 20
20.7407519336
 10
29.4950648997
 20
20.5717681968
 10
29.1416486057
 20
20.3734863081
 10
28.8529093776
 20
20.150553827
 10
28.6356150183
 20
19.9081961018
 10
28.4948587234
 20
19.6520937922
 10
28.433939701
 20
19.3882497194
 10
28.4542858416
 20
19.1228481646
 10
28.5554202487
 20
18.8621099156
 10
28.7349724175
 20
18.6121464557
 10
28.9887337976
 20
18.3788167167
 10
29.310756437
 20
18.1675897499
 10
29.6934923982
 20
17.9834165363
 10
30.1279706746
 20
17.8306139399
 10
30.6040074636
 20
17.7127635242
 10
31.1104448664
 20
17.632627603
 10
31.6354124195
 20
17.5920844944
 10
32.1666053283
 20
17.5920844944
 10
32.6915728814
 20
17.632627603
 10
33.1980102842
 20
17.7127635242
 10
33.6740470732
 20
17.8306139399
 10
34.1085253496
 20
17.9834165363
 10
34.4912613108
 20
18.1675897499
 10
34.8132839502
 20
18.3788167167
 10
35.0670453302
 20
18.6121464557
 10
35.2465974991
 20
18.8621099156
 10
35.3477319062
 20
19.1228481646
 10
35.3680780468
 20
19.3882497194
 10
35.3071590244
 20
19.6520937922
 10
35.1664027295
 20
19.9081961018
 10
34.9491083702
 20
20.150553827
 10
34.6603691421
 20
20.3734863081
 10
34.3069528481
 20
20.5717681968
 10
33.8971432666
 20
20.7407519336
 10
33.4405459867
 20
20.8764766831
 10
32.9478632617
 20
20.9757611719
 10
32.4306431571
 20
21.036278256
 10
31.9010088739
 20
21.0566094662
  0
LWPOLYLINE
  5
1C1
330
1F
100
AcDbEntity
  8
1
  6
SLD-Gestrichelt
 62
   131
420
  8454143
370
     0
100
AcDbPolyline
 90
       39
 70
   128
 43
0.0
 10
31.9010088739
 20
20.5369942239
 10
31.4154548326
 20
20.5168771464
 10
30.9431454397
 20
20.4570746554
 10
30.4969640644
 20
20.3592180069
 10
30.0890813715
 20
20.2259764753
 10
29.7306233374
 20
20.0609845421
 10
29.431367763
 20
19.8687427571
 10
29.1994775603
 20
19.6544949753
 10
29.0412780894
 20
19.4240853174
 10
28.9610846195
 20
19.1837987585
 10
28.9610846195
 20
18.9401896893
 10
29.0412780894
 20
18.6999031304
 10
29.1994775603
 20
18.4694934725
 10
29.431367763
 20
18.2552456907
 10
29.7306233374
 20
18.0630039058
 10
30.0890813715
 20
17.8980119725
 10
30.4969640644
 20
17.7647704409
 10
30.9431454397
 20
17.6669137924
 10
31.4154548326
 20
17.6071113014
 10
31.9010088739
 20
17.5869942239
 10
32.3865629152
 20
17.6071113014
 10
32.858872308
 20
17.6669137924
 10
33.3050536834
 20
17.7647704409
 10
33.7129363763
 20
17.8980119725
 10
34.0713944104
 20
18.0630039058
 10
34.3706499848
 20
18.2552456907
 10
34.6025401875
 20
18.4694934725
 10
34.7607396584
 20
18.6999031304
 10
34.8409331283
 20
18.9401896893
 10
34.8409331283
 20
19.1837987585
 10
34.7607396584
 20
19.4240853174
 10
34.6025401875
 20
19.6544949753
 10
34.3706499848
 20
19.8687427571
 10
34.0713944104
 20
20.0609845421
 10
33.7129363763
 20
20.2259764753
 10
33.3050536834
 20
20.3592180069
 10
32.858872308
 20
20.4570746554
 10
32.3865629152
 20
20.5168771464
 10
31.9010088739
 20
20.5369942239
  0
LINE
  5
1C2
330
1F
100
AcDbEntity
  8
1
  6
SLD-Gestrichelt
 62
   131
420
  8454143
370
     0
100
AcDbLine
 10
24.0010088739
 20
15.4472243802
 30
0.0
 11
23.8010088739
 21
14.8008142187
 31
0.0
  0
LINE
  5
1C3
330
1F
100
AcDbEntity
  8
1
  6
SLD-Gestrichelt
 62
   131
420
  8454143
370
     0
100
AcDbLine
 10
39.8010088739
 20
15.4472243802
 30
0.0
 11
40.0010088739
 21
14.8008142187
 31
0.0
  0
LINE
  5
1C4
330
1F
100
AcDbEntity
  8
1
  6
SLD-Gestrichelt
 62
   131
420
  8454143
370
     0
100
AcDbLine
 10
24.0010088739
 20
15.4472243802
 30
0.0
 11
23.8595875177
 21
14.7301035406
 31
0.0
  0
LINE
  5
1C5
330
1F
100
AcDbEntity
  8
1
  6
SLD-Gestrichelt
 62
   131
420
  8454143
370
     0
100
AcDbLine
 10
25.0764470299
 20
19.1458256756
 30
0.0
 11
24.0010088739
 21
15.4472243802
 31
0.0
  0
LINE
  5
1C6
330
1F
100
AcDbEntity
  8
1
  6
SLD-Gestrichelt
 62
   131
420
  8454143
370
     0
100
AcDbLine
 10
25.0764470299
 20
19.1458256756
 30
0.0
 11
31.549056535
 21
15.909520923
 31
0.0
  0
LINE
  5
1C7
330
1F
100
AcDbEntity
  8
1
  6
SLD-Gestrichelt
 62
   131
420
  8454143
370
     0
100
AcDbLine
 10
39.8010088739
 20
15.4472243802
 30
0.0
 11
39.9424302301
 21
14.7301035406
 31
0.0
  0
LINE
  5
1C8
330
1F
100
AcDbEntity
  8
1
  6
SLD-Gestrichelt
 62
   131
420
  8454143
370
     0
100
AcDbLine
 10
38.7255707179
 20
19.1458256756
 30
0.0
 11
39.8010088739
 21
15.4472243802
 31
0.0
  0
LINE
  5
1C9
330
1F
100
AcDbEntity
  8
1
  6
SLD-Gestrichelt
 62
   131
420
  8454143
370
     0
100
AcDbLine
 10
32.2529612128
 20
15.909520923
 30
0.0
 11
38.7255707179
 21
19.1458256756
 31
0.0
  0
LINE
  5
1CA
330
1F
100
AcDbEntity
  8
1
  6
SLD-Gestrichelt
 62
   131
420
  8454143
370
     0
100
AcDbLine
 10
31.1035954653
 20
11.8959310845
 30
0.0
 11
30.9621741091
 21
11.1788102449
 31
0.0
  0
LINE
  5
1CB
330
1F
100
AcDbEntity
  8
1
  6
SLD-Gestrichelt
 62
   131
420
  8454143
370
     0
100
AcDbLine
 10
32.6984222825
 20
11.8959310845
 30
0.0
 11
32.8398436387
 21
11.1788102449
 31
0.0
  0
LINE
  5
1CC
330
1F
100
AcDbEntity
  8
1
  6
SLD-Gestrichelt
 62
   131
420
  8454143
370
     0
100
AcDbLine
 10
32.6984222825
 20
11.8959310845
 30
0.0
 11
32.6984222825
 21
11.149520923
 31
0.0
  0
LINE
  5
1CD
330
1F
100
AcDbEntity
  8
1
  6
SLD-Gestrichelt
 62
   131
420
  8454143
370
     0
100
AcDbLine
 10
31.1035954653
 20
11.8959310845
 30
0.0
 11
31.1035954653
 21
11.149520923
 31
0.0
  0
LINE
  5
1CE
330
1F
100
AcDbEntity
  8
1
  6
SLD-Gestrichelt
 62
   131
420
  8454143
370
     0
100
AcDbLine
 10
32.2529612128
 20
15.909520923
 30
0.0
 11
32.6984222825
 21
11.8959310845
 31
0.0
  0
LINE
  5
1CF
330
1F
100
AcDbEntity
  8
1
  6
SLD-Gestrichelt
 62
   131
420
  8454143
370
     0
100
AcDbLine
 10
31.549056535
 20
15.909520923
 30
0.0
 11
31.1035954653
 21
11.8959310845
 31
0.0
  0
LINE
  5
1D0
330
1F
100
AcDbEntity
  8
1
  6
SLD-Gestrichelt
 62
   131
420
  8454143
370
     0
100
AcDbLine
 10
31.549056535
 20
15.909520923
 30
0.0
 11
32.2529612128
 21
15.909520923
 31
0.0
  0
LINE
  5
1D1
330
1F
100
AcDbEntity
  8
1
  6
SLD-Gestrichelt
 62
   131
420
  8454143
370
     0
100
AcDbLine
 10
38.7255707179
 20
-11.2541743244
 30
0.0
 11
32.3312594493
 21
-14.4513299587
 31
0.0
  0
LINE
  5
1D2
330
1F
100
AcDbEntity
  8
1
  6
SLD-Gestrichelt
 62
   131
420
  8454143
370
     0
100
AcDbLine
 10
38.7255707179
 20
-11.2541743244
 30
0.0
 11
38.8556631265
 21
-11.7015826188
 31
0.0
  0
LINE
  5
1D3
330
1F
100
AcDbEntity
  8
1
  6
SLD-Gestrichelt
 62
   131
420
  8454143
370
     0
100
AcDbLine
 10
24.0010088739
 20
-14.9527756198
 30
0.0
 11
23.8595875177
 21
-15.6698964594
 31
0.0
  0
LINE
  5
1D4
330
1F
100
AcDbEntity
  8
1
  6
SLD-Gestrichelt
 62
   131
420
  8454143
370
     0
100
AcDbLine
 10
25.0764470299
 20
-11.2541743244
 30
0.0
 11
24.0010088739
 21
-14.9527756198
 31
0.0
  0
LINE
  5
1D5
330
1F
100
AcDbEntity
  8
1
  6
SLD-Gestrichelt
 62
   131
420
  8454143
370
     0
100
AcDbLine
 10
31.4707582985
 20
-14.4513299587
 30
0.0
 11
25.0764470299
 21
-11.2541743244
 31
0.0
  0
LINE
  5
1D6
330
1F
100
AcDbEntity
  8
1
  6
SLD-Gestrichelt
 62
   131
420
  8454143
370
     0
100
AcDbLine
 10
29.9610303761
 20
-18.7206178886
 30
0.0
 11
23.8595875177
 21
-15.6698964594
 31
0.0
  0
LINE
  5
1D7
330
1F
100
AcDbEntity
  8
1
  6
SLD-Gestrichelt
 62
   131
420
  8454143
370
     0
100
AcDbLine
 10
38.7255707179
 20
-10.9022219855
 30
0.0
 11
38.7255707179
 21
-11.2541743244
 31
0.0
  0
LINE
  5
1D8
330
1F
100
AcDbEntity
  8
1
  6
SLD-Gestrichelt
 62
   131
420
  8454143
370
     0
100
AcDbLine
 10
25.0764470299
 20
-11.2541743244
 30
0.0
 11
25.0764470299
 21
-10.9022219855
 31
0.0
  0
LINE
  5
1D9
330
1F
100
AcDbEntity
  8
1
  6
SLD-Gestrichelt
 62
   131
420
  8454143
370
     0
100
AcDbLine
 10
25.0764470299
 20
-10.9022219855
 30
0.0
 11
31.549056535
 21
-7.6659172329
 31
0.0
  0
LINE
  5
1DA
330
1F
100
AcDbEntity
  8
1
  6
SLD-Gestrichelt
 62
   131
420
  8454143
370
     0
100
AcDbLine
 10
31.549056535
 20
-7.6659172329
 30
0.0
 11
32.2529612128
 21
-7.6659172329
 31
0.0
  0
LINE
  5
1DB
330
1F
100
AcDbEntity
  8
1
  6
SLD-Gestrichelt
 62
   131
420
  8454143
370
     0
100
AcDbLine
 10
32.2529612128
 20
-7.6659172329
 30
0.0
 11
38.7255707179
 21
-10.9022219855
 31
0.0
  0
LWPOLYLINE
  5
1DC
330
1F
100
AcDbEntity
  8
1
  6
SLD-Gestrichelt
 62
   131
420
  8454143
370
     0
100
AcDbPolyline
 90
       42
 70
   128
 43
0.0
 10
31.9010088739
 20
-12.8130057761
 10
31.3713745906
 20
-12.792674566
 10
30.8541544861
 20
-12.7321574819
 10
30.3614717611
 20
-12.632872993
 10
29.9048744812
 20
-12.4971482436
 10
29.4950648997
 20
-12.3281645067
 10
29.1416486057
 20
-12.129882618
 10
28.8529093776
 20
-11.9069501369
 10
28.6356150183
 20
-11.6645924117
 10
28.4948587234
 20
-11.4084901021
 10
28.433939701
 20
-11.1446460293
 10
28.4542858416
 20
-10.8792444746
 10
28.5554202487
 20
-10.6185062255
 10
28.7349724175
 20
-10.3685427656
 10
28.9887337976
 20
-10.1352130266
 10
29.310756437
 20
-9.9239860598
 10
29.6934923982
 20
-9.7398128462
 10
30.1279706746
 20
-9.5870102499
 10
30.6040074636
 20
-9.4691598342
 10
31.1104448664
 20
-9.389023913
 10
31.6354124195
 20
-9.3484808043
 10
32.1666053283
 20
-9.3484808043
 10
32.6915728814
 20
-9.389023913
 10
33.1980102842
 20
-9.4691598342
 10
33.6740470732
 20
-9.5870102499
 10
34.1085253496
 20
-9.7398128462
 10
34.4912613108
 20
-9.9239860598
 10
34.8132839502
 20
-10.1352130266
 10
35.0670453302
 20
-10.3685427656
 10
35.2465974991
 20
-10.6185062255
 10
35.3477319062
 20
-10.8792444746
 10
35.3680780468
 20
-11.1446460293
 10
35.3071590244
 20
-11.4084901021
 10
35.1664027295
 20
-11.6645924117
 10
34.9491083702
 20
-11.9069501369
 10
34.6603691421
 20
-12.129882618
 10
34.3069528481
 20
-12.3281645067
 10
33.8971432666
 20
-12.4971482436
 10
33.4405459867
 20
-12.632872993
 10
32.9478632617
 20
-12.7321574819
 10
32.4306431571
 20
-12.792674566
 10
31.9010088739
 20
-12.8130057761
  0
LWPOLYLINE
  5
1DD
330
1F
100
AcDbEntity
  8
1
  6
SLD-Gestrichelt
 62
   131
420
  8454143
370
     0
100
AcDbPolyline
 90
       39
 70
   128
 43
0.0
 10
31.9010088739
 20
-12.8130057761
 10
31.4154548326
 20
-12.7928886986
 10
30.9431454397
 20
-12.7330862076
 10
30.4969640644
 20
-12.6352295591
 10
30.0890813715
 20
-12.5019880275
 10
29.7306233374
 20
-12.3369960942
 10
29.431367763
 20
-12.1447543093
 10
29.1994775603
 20
-11.9305065275
 10
29.0412780894
 20
-11.7000968696
 10
28.9610846195
 20
-11.4598103107
 10
28.9610846195
 20
-11.2162012415
 10
29.0412780894
 20
-10.9759146826
 10
29.1994775603
 20
-10.7455050247
 10
29.431367763
 20
-10.5312572429
 10
29.7306233374
 20
-10.3390154579
 10
30.0890813715
 20
-10.1740235247
 10
30.4969640644
 20
-10.0407819931
 10
30.9431454397
 20
-9.9429253446
 10
31.4154548326
 20
-9.8831228536
 10
31.9010088739
 20
-9.8630057761
 10
32.3865629152
 20
-9.8831228536
 10
32.858872308
 20
-9.9429253446
 10
33.3050536834
 20
-10.0407819931
 10
33.7129363763
 20
-10.1740235247
 10
34.0713944104
 20
-10.3390154579
 10
34.3706499848
 20
-10.5312572429
 10
34.6025401875
 20
-10.7455050247
 10
34.7607396584
 20
-10.9759146826
 10
34.8409331283
 20
-11.2162012415
 10
34.8409331283
 20
-11.4598103107
 10
34.7607396584
 20
-11.7000968696
 10
34.6025401875
 20
-11.9305065275
 10
34.3706499848
 20
-12.1447543093
 10
34.0713944104
 20
-12.3369960942
 10
33.7129363763
 20
-12.5019880275
 10
33.3050536834
 20
-12.6352295591
 10
32.858872308
 20
-12.7330862076
 10
32.3865629152
 20
-12.7928886986
 10
31.9010088739
 20
-12.8130057761
  0
LWPOLYLINE
  5
1DE
330
1F
100
AcDbEntity
  8
1
  6
SLD-Gestrichelt
 62
   131
420
  8454143
370
     0
100
AcDbPolyline
 90
       38
 70
   128
 43
0.0
 10
31.9010088739
 20
-12.7130057761
 10
31.436256618
 20
-12.6932276528
 10
30.9848744384
 20
-12.6344622636
 10
30.5598477784
 20
-12.5384001817
 10
30.1734038813
 20
-12.4078049383
 10
29.8366600344
 20
-12.2464335208
 10
29.5593037451
 20
-12.058928291
 10
29.3493140488
 20
-11.850683433
 10
29.2127319668
 20
-11.6276897723
 10
29.1534867168
 20
-11.3963624305
 10
29.1732826769
 20
-11.1633562739
 10
29.2715503534
 20
-10.9353744656
 10
29.445462764
 20
-10.718975627
 10
29.6900167654
 20
-10.5203851587
 10
29.9981769842
 20
-10.3453161469
 10
30.361078212
 20
-10.1988050084
 10
30.7682804412
 20
-10.0850666018
 10
31.2080692051
 20
-10.0073729741
 10
31.6677925816
 20
-9.9679592293
 10
32.1342251662
 20
-9.9679592293
 10
32.5939485427
 20
-10.0073729741
 10
33.0337373066
 20
-10.0850666018
 10
33.4409395358
 20
-10.1988050084
 10
33.8038407636
 20
-10.3453161469
 10
34.1120009824
 20
-10.5203851587
 10
34.3565549838
 20
-10.718975627
 10
34.5304673944
 20
-10.9353744656
 10
34.6287350709
 20
-11.1633562739
 10
34.648531031
 20
-11.3963624305
 10
34.589285781
 20
-11.6276897723
 10
34.452703699
 20
-11.850683433
 10
34.2427140027
 20
-12.058928291
 10
33.9653577133
 20
-12.2464335208
 10
33.6286138665
 20
-12.4078049383
 10
33.2421699694
 20
-12.5384001817
 10
32.8171433094
 20
-12.6344622636
 10
32.3657611298
 20
-12.6932276528
 10
31.9010088739
 20
-12.7130057761
  0
LWPOLYLINE
  5
1DF
330
1F
100
AcDbEntity
  8
1
  6
SLD-Gestrichelt
 62
   131
420
  8454143
370
     0
100
AcDbPolyline
 90
       38
 70
   128
 43
0.0
 10
31.9010088739
 20
-14.889818072
 10
31.436256618
 20
-14.8700399487
 10
30.9848744384
 20
-14.8112745595
 10
30.5598477784
 20
-14.7152124775
 10
30.1734038813
 20
-14.5846172341
 10
29.8366600344
 20
-14.4232458166
 10
29.5593037451
 20
-14.2357405868
 10
29.3493140488
 20
-14.0274957289
 10
29.2127319668
 20
-13.8045020682
 10
29.1534867168
 20
-13.5731747263
 10
29.1732826769
 20
-13.3401685698
 10
29.2715503534
 20
-13.1121867614
 10
29.445462764
 20
-12.8957879228
 10
29.6900167654
 20
-12.6971974545
 10
29.9981769842
 20
-12.5221284428
 10
30.361078212
 20
-12.3756173042
 10
30.7682804412
 20
-12.2618788977
 10
31.2080692051
 20
-12.1841852699
 10
31.6677925816
 20
-12.1447715252
 10
32.1342251662
 20
-12.1447715252
 10
32.5939485427
 20
-12.1841852699
 10
33.0337373066
 20
-12.2618788977
 10
33.4409395358
 20
-12.3756173042
 10
33.8038407636
 20
-12.5221284428
 10
34.1120009824
 20
-12.6971974545
 10
34.3565549838
 20
-12.8957879228
 10
34.5304673944
 20
-13.1121867614
 10
34.6287350709
 20
-13.3401685698
 10
34.648531031
 20
-13.5731747263
 10
34.589285781
 20
-13.8045020682
 10
34.452703699
 20
-14.0274957289
 10
34.2427140027
 20
-14.2357405868
 10
33.9653577133
 20
-14.4232458166
 10
33.6286138665
 20
-14.5846172341
 10
33.2421699694
 20
-14.7152124775
 10
32.8171433094
 20
-14.8112745595
 10
32.3657611298
 20
-14.8700399487
 10
31.9010088739
 20
-14.889818072
  0
LWPOLYLINE
  5
1E0
330
1F
100
AcDbEntity
  8
1
  6
SLD-Gestrichelt
 62
   131
420
  8454143
370
     0
100
AcDbPolyline
 90
       43
 70
   128
 43
0.0
 10
31.9010088739
 20
-16.5924663751
 10
31.3570046024
 20
-16.5720826329
 10
30.8251524873
 20
-16.5113867456
 10
30.3173332261
 20
-16.411734559
 10
29.844890662
 20
-16.2753521382
 10
29.418378381
 20
-16.1052860412
 10
29.0473239629
 20
-15.9053352635
 10
28.7400161501
 20
-15.6799663751
 10
28.5033196913
 20
-15.4342137446
 10
28.3425219944
 20
-15.1735670796
 10
28.2612150142
 20
-14.9038487959
 10
28.2612150142
 20
-14.6310839543
 10
28.3425219944
 20
-14.3613656706
 10
28.5033196913
 20
-14.1007190056
 10
28.7400161501
 20
-13.8549663751
 10
29.0473239629
 20
-13.6295974867
 10
29.418378381
 20
-13.429646709
 10
29.844890662
 20
-13.259580612
 10
30.3173332261
 20
-13.1231981912
 10
30.8251524873
 20
-13.0235460045
 10
31.3570046024
 20
-12.9628501172
 10
31.9010088739
 20
-12.9424663751
 10
32.4450131454
 20
-12.9628501172
 10
32.9768652605
 20
-13.0235460045
 10
33.4846845217
 20
-13.1231981912
 10
33.9571270858
 20
-13.259580612
 10
34.3836393668
 20
-13.429646709
 10
34.7546937849
 20
-13.6295974867
 10
35.0620015977
 20
-13.8549663751
 10
35.2986980564
 20
-14.1007190056
 10
35.4594957534
 20
-14.3613656706
 10
35.5408027336
 20
-14.6310839543
 10
35.5408027336
 20
-14.9038487959
 10
35.4594957534
 20
-15.1735670796
 10
35.2986980564
 20
-15.4342137446
 10
35.0620015977
 20
-15.6799663751
 10
34.7546937849
 20
-15.9053352635
 10
34.3836393668
 20
-16.1052860412
 10
33.9571270858
 20
-16.2753521382
 10
33.4846845217
 20
-16.411734559
 10
32.9768652605
 20
-16.5113867456
 10
32.4450131454
 20
-16.5720826329
 10
31.9010088739
 20
-16.5924663751
  0
LWPOLYLINE
  5
1E1
330
1F
100
AcDbEntity
  8
1
  6
SLD-Gestrichelt
 62
   131
420
  8454143
370
     0
100
AcDbPolyline
 90
       44
 70
   128
 43
0.0
 10
31.9010088739
 20
-17.0695608222
 10
31.3567279045
 20
-17.049642706
 10
30.824047339
 20
-16.9903128774
 10
30.3143203389
 20
-16.8928358489
 10
29.8384108502
 20
-16.7592891739
 10
29.4064620574
 20
-16.5925191681
 10
29.027680199
 20
-16.3960802445
 10
28.7101383528
 20
-16.1741591577
 10
28.460604372
 20
-15.9314857705
 10
28.28439664
 20
-15.6732322447
 10
28.1852707189
 20
-15.404902806
 10
28.1653393054
 20
-15.1322164304
 10
28.2250272031
 20
-14.8609849546
 10
28.3630622681
 20
-14.5969892065
 10
28.5765025225
 20
-14.3458557974
 10
28.860798858
 20
-14.1129371996
 10
29.2098919917
 20
-13.9031976689
 10
29.6163416096
 20
-13.7211074391
 10
30.0714849437
 20
-13.5705474473
 10
30.565621404
 20
-13.4547266184
 10
31.0882193298
 20
-13.3761134723
 10
31.6281404537
 20
-13.3363835117
 10
32.1738772941
 20
-13.3363835117
 10
32.713798418
 20
-13.3761134723
 10
33.2363963438
 20
-13.4547266184
 10
33.7305328041
 20
-13.5705474473
 10
34.1856761382
 20
-13.7211074391
 10
34.5921257561
 20
-13.9031976689
 10
34.9412188898
 20
-14.1129371996
 10
35.2255152253
 20
-14.3458557974
 10
35.4389554797
 20
-14.5969892065
 10
35.5769905447
 20
-14.8609849546
 10
35.6366784424
 20
-15.1322164304
 10
35.6167470289
 20
-15.404902806
 10
35.5176211077
 20
-15.6732322447
 10
35.3414133758
 20
-15.9314857705
 10
35.091879395
 20
-16.1741591577
 10
34.7743375488
 20
-16.3960802445
 10
34.3955556904
 20
-16.5925191681
 10
33.9636068976
 20
-16.7592891739
 10
33.4876974089
 20
-16.8928358489
 10
32.9779704087
 20
-16.9903128774
 10
32.4452898433
 20
-17.049642706
 10
31.9010088739
 20
-17.0695608222
  0
LWPOLYLINE
  5
1E2
330
1F
100
AcDbEntity
  8
1
  6
SLD-Gestrichelt
 62
   131
420
  8454143
370
     0
100
AcDbPolyline
 90
       38
 70
   128
 43
0.0
 10
31.9010088739
 20
-15.1800543219
 10
31.4263109197
 20
-15.1598529468
 10
30.9652691614
 20
-15.0998299783
 10
30.531146931
 20
-15.0017121678
 10
30.1364331345
 20
-14.8683221862
 10
29.7924829693
 20
-14.7034974203
 10
29.5091912554
 20
-14.5119795787
 10
29.2947077796
 20
-14.2992782808
 10
29.155202841
 20
-14.0715125557
 10
29.0946897427
 20
-13.8352348087
 10
29.1149093363
 20
-13.5972423205
 10
29.215279941
 20
-13.3643817014
 10
29.3929140772
 20
-13.1433519276
 10
29.6427015343
 20
-12.9405116233
 10
29.9574563818
 20
-12.7616961347
 10
30.3281236959
 20
-12.6120496578
 10
30.7440400528
 20
-12.4958772493
 10
31.1932402962
 20
-12.416520978
 10
31.6628017529
 20
-12.3762637791
 10
32.1392159949
 20
-12.3762637791
 10
32.6087774516
 20
-12.416520978
 10
33.057977695
 20
-12.4958772493
 10
33.4738940519
 20
-12.6120496578
 10
33.844561366
 20
-12.7616961347
 10
34.1593162135
 20
-12.9405116233
 10
34.4091036706
 20
-13.1433519276
 10
34.5867378068
 20
-13.3643817014
 10
34.6871084115
 20
-13.5972423205
 10
34.7073280051
 20
-13.8352348087
 10
34.6468149068
 20
-14.0715125557
 10
34.5073099682
 20
-14.2992782808
 10
34.2928264924
 20
-14.5119795787
 10
34.0095347785
 20
-14.7034974203
 10
33.6655846133
 20
-14.8683221862
 10
33.2708708168
 20
-15.0017121678
 10
32.8367485864
 20
-15.0998299783
 10
32.3757068281
 20
-15.1598529468
 10
31.9010088739
 20
-15.1800543219
  0
LINE
  5
1E3
330
1F
100
AcDbEntity
  8
1
  6
SLD-Gestrichelt
 62
   131
420
  8454143
370
     0
100
AcDbLine
 10
38.7255707179
 20
-10.9022219855
 30
0.0
 11
38.9697802608
 21
-11.6409421835
 31
0.0
  0
LINE
  5
1E4
330
1F
100
AcDbEntity
  8
1
  6
SLD-Gestrichelt
 62
   131
420
  8454143
370
     0
100
AcDbLine
 10
24.0010088739
 20
-14.1553622112
 30
0.0
 11
23.8010088739
 21
-14.8017723727
 31
0.0
  0
LINE
  5
1E5
330
1F
100
AcDbEntity
  8
1
  6
SLD-Gestrichelt
 62
   131
420
  8454143
370
     0
100
AcDbLine
 10
25.0764470299
 20
-10.9022219855
 30
0.0
 11
24.0010088739
 21
-14.1553622112
 31
0.0
  0
LINE
  5
1E6
330
1F
100
AcDbEntity
  8
1
  6
SLD-Gestrichelt
 62
   131
420
  8454143
370
     0
100
AcDbLine
 10
24.0010088739
 20
-14.9527756198
 30
0.0
 11
23.8010088739
 21
-15.5991857813
 31
0.0
  0
LINE
  5
1E7
330
1F
100
AcDbEntity
  8
1
  6
SLD-Gestrichelt
 62
   131
420
  8454143
370
     0
100
AcDbLine
 10
32.8398436387
 20
-11.1797683989
 30
0.0
 11
39.9424302301
 21
-14.7310616946
 31
0.0
  0
LINE
  5
1E8
330
1F
100
AcDbEntity
  8
1
  6
SLD-Gestrichelt
 62
   131
420
  8454143
370
     0
100
AcDbLine
 10
23.8595875177
 20
-14.7310616946
 30
0.0
 11
30.9621741091
 21
-11.1797683989
 31
0.0
  0
LINE
  5
1E9
330
1F
100
AcDbEntity
  8
1
  6
SLD-Gestrichelt
 62
   131
420
  8454143
370
     0
100
AcDbLine
 10
39.8010088739
 20
-14.1553622112
 30
0.0
 11
39.9424302301
 21
-14.7310616946
 31
0.0
  0
ARC
  5
1EA
330
1F
100
AcDbEntity
  8
1
  6
SLD-Gestrichelt
 62
   131
420
  8454143
370
     0
100
AcDbCircle
 10
39.9074808445
 20
-14.8227784177
 30
0.0
 40
0.0981499713136337
100
AcDbArc
 50
21.8165718061
 51
69.1402605062
  0
LINE
  5
1EB
330
1F
100
AcDbEntity
  8
1
  6
SLD-Gestrichelt
 62
   131
420
  8454143
370
     0
100
AcDbLine
 10
24.0010088739
 20
-14.1553622112
 30
0.0
 11
23.8595875177
 21
-14.7310616946
 31
0.0
  0
ARC
  5
1EC
330
1F
100
AcDbEntity
  8
1
  6
SLD-Gestrichelt
 62
   131
420
  8454143
370
     0
100
AcDbCircle
 10
23.8886238894
 20
-14.8147356203
 30
0.0
 40
0.0885688248703222
100
AcDbArc
 50
109.1377028622
 51
171.5837526623
  0
LINE
  5
1ED
330
1F
100
AcDbEntity
  8
1
  6
SLD-Gestrichelt
 62
   131
420
  8454143
370
     0
100
AcDbLine
 10
31.549056535
 20
-7.6659172329
 30
0.0
 11
31.1035954653
 21
-10.6040689155
 31
0.0
  0
LINE
  5
1EE
330
1F
100
AcDbEntity
  8
1
  6
SLD-Gestrichelt
 62
   131
420
  8454143
370
     0
100
AcDbLine
 10
32.2529612128
 20
-7.6659172329
 30
0.0
 11
32.6984222825
 21
-10.6040689155
 31
0.0
  0
LINE
  5
1EF
330
1F
100
AcDbEntity
  8
1
  6
SLD-Gestrichelt
 62
   131
420
  8454143
370
     0
100
AcDbLine
 10
31.1035954653
 20
-11.150479077
 30
0.0
 11
32.6984222825
 21
-11.150479077
 31
0.0
  0
LINE
  5
1F0
330
1F
100
AcDbEntity
  8
1
  6
SLD-Gestrichelt
 62
   131
420
  8454143
370
     0
100
AcDbLine
 10
31.1035954653
 20
-10.6040689155
 30
0.0
 11
31.1035954653
 21
-11.150479077
 31
0.0
  0
LINE
  5
1F1
330
1F
100
AcDbEntity
  8
1
  6
SLD-Gestrichelt
 62
   131
420
  8454143
370
     0
100
AcDbLine
 10
31.1035954653
 20
-10.6040689155
 30
0.0
 11
30.9621741091
 21
-11.1797683989
 31
0.0
  0
ARC
  5
1F2
330
1F
100
AcDbEntity
  8
1
  6
SLD-Gestrichelt
 62
   131
420
  8454143
370
     0
100
AcDbCircle
 10
31.0971138415
 20
-11.4752490459
 30
0.0
 40
0.3248346412399526
100
AcDbArc
 50
88.8566664699
 51
114.5451725464
  0
LINE
  5
1F3
330
1F
100
AcDbEntity
  8
1
  6
SLD-Gestrichelt
 62
   131
420
  8454143
370
     0
100
AcDbLine
 10
32.6984222825
 20
-10.6040689155
 30
0.0
 11
32.6984222825
 21
-11.150479077
 31
0.0
  0
LINE
  5
1F4
330
1F
100
AcDbEntity
  8
1
  6
SLD-Gestrichelt
 62
   131
420
  8454143
370
     0
100
AcDbLine
 10
32.6984222825
 20
-10.6040689155
 30
0.0
 11
32.8398436387
 21
-11.1797683989
 31
0.0
  0
ARC
  5
1F5
330
1F
100
AcDbEntity
  8
1
  6
SLD-Gestrichelt
 62
   131
420
  8454143
370
     0
100
AcDbCircle
 10
32.7049039063
 20
-11.4752490459
 30
0.0
 40
0.3248346412399861
100
AcDbArc
 50
65.4548274536
 51
91.1433335301
  0
LINE
  5
1F6
330
1F
100
AcDbEntity
  8
1
  6
SLD-Gestrichelt
 62
   131
420
  8454143
370
     0
100
AcDbLine
 10
38.7255707179
 20
-30.0485267381
 30
0.0
 11
38.7255707179
 21
-30.7524314159
 31
0.0
  0
LINE
  5
1F7
330
1F
100
AcDbEntity
  8
1
  6
SLD-Gestrichelt
 62
   131
420
  8454143
370
     0
100
AcDbLine
 10
38.7255707179
 20
-30.7524314159
 30
0.0
 11
32.3312594493
 21
-37.1467426845
 31
0.0
  0
LINE
  5
1F8
330
1F
100
AcDbEntity
  8
1
  6
SLD-Gestrichelt
 62
   131
420
  8454143
370
     0
100
AcDbLine
 10
31.4707582985
 20
-37.1467426845
 30
0.0
 11
25.0764470299
 21
-30.7524314159
 31
0.0
  0
LINE
  5
1F9
330
1F
100
AcDbEntity
  8
1
  6
SLD-Gestrichelt
 62
   131
420
  8454143
370
     0
100
AcDbLine
 10
25.0764470299
 20
-30.7524314159
 30
0.0
 11
25.0764470299
 21
-30.0485267381
 31
0.0
  0
LINE
  5
1FA
330
1F
100
AcDbEntity
  8
1
  6
SLD-Gestrichelt
 62
   131
420
  8454143
370
     0
100
AcDbLine
 10
25.0764470299
 20
-30.0485267381
 30
0.0
 11
31.549056535
 21
-23.5759172329
 31
0.0
  0
LINE
  5
1FB
330
1F
100
AcDbEntity
  8
1
  6
SLD-Gestrichelt
 62
   131
420
  8454143
370
     0
100
AcDbLine
 10
31.549056535
 20
-23.5759172329
 30
0.0
 11
32.2529612128
 21
-23.5759172329
 31
0.0
  0
LINE
  5
1FC
330
1F
100
AcDbEntity
  8
1
  6
SLD-Gestrichelt
 62
   131
420
  8454143
370
     0
100
AcDbLine
 10
32.2529612128
 20
-23.5759172329
 30
0.0
 11
38.7255707179
 21
-30.0485267381
 31
0.0
  0
CIRCLE
  5
1FD
330
1F
100
AcDbEntity
  8
1
  6
SLD-Gestrichelt
 62
   131
420
  8454143
370
     0
100
AcDbCircle
 10
31.9010088739
 20
-30.400479077
 30
0.0
 40
3.469615242270667
  0
LINE
  5
1FE
330
1F
100
AcDbEntity
  8
1
  6
SLD-Gestrichelt
 62
   131
420
  8454143
370
     0
100
AcDbLine
 10
24.0010088739
 20
-31.1978924856
 30
0.0
 11
23.8595875177
 21
-31.3393138418
 31
0.0
  0
LINE
  5
1FF
330
1F
100
AcDbEntity
  8
1
  6
SLD-Gestrichelt
 62
   131
420
  8454143
370
     0
100
AcDbLine
 10
25.0764470299
 20
-30.7524314159
 30
0.0
 11
24.0010088739
 21
-31.1978924856
 31
0.0
  0
LINE
  5
200
330
1F
100
AcDbEntity
  8
1
  6
SLD-Gestrichelt
 62
   131
420
  8454143
370
     0
100
AcDbLine
 10
38.7255707179
 20
-30.7524314159
 30
0.0
 11
39.0010088739
 21
-30.8665216357
 31
0.0
  0
CIRCLE
  5
201
330
1F
100
AcDbEntity
  8
1
  6
SLD-Gestrichelt
 62
   131
420
  8454143
370
     0
100
AcDbCircle
 10
31.9010088739
 20
-30.400479077
 30
0.0
 40
2.949999999999999
  0
LINE
  5
202
330
1F
100
AcDbEntity
  8
1
  6
SLD-Gestrichelt
 62
   131
420
  8454143
370
     0
100
AcDbLine
 10
38.7255707179
 20
-30.0485267381
 30
0.0
 11
39.0010088739
 21
-29.9344365183
 31
0.0
  0
LINE
  5
203
330
1F
100
AcDbEntity
  8
1
  6
SLD-Gestrichelt
 62
   131
420
  8454143
370
     0
100
AcDbLine
 10
32.2529612128
 20
-23.5759172329
 30
0.0
 11
32.6984222825
 21
-22.500479077
 31
0.0
  0
LINE
  5
204
330
1F
100
AcDbEntity
  8
1
  6
SLD-Gestrichelt
 62
   131
420
  8454143
370
     0
100
AcDbLine
 10
32.6984222825
 20
-22.500479077
 30
0.0
 11
32.8398436387
 21
-22.3590577207
 31
0.0
  0
LINE
  5
205
330
1F
100
AcDbEntity
  8
1
  6
SLD-Gestrichelt
 62
   131
420
  8454143
370
     0
100
AcDbLine
 10
32.8398436387
 20
-22.3590577207
 30
0.0
 11
39.0010088739
 21
-28.5202229559
 31
0.0
  0
LINE
  5
206
330
1F
100
AcDbEntity
  8
1
  6
SLD-Gestrichelt
 62
   131
420
  8454143
370
     0
100
AcDbLine
 10
31.1035954653
 20
-22.500479077
 30
0.0
 11
30.9621741091
 21
-22.3590577207
 31
0.0
  0
LINE
  5
207
330
1F
100
AcDbEntity
  8
1
  6
SLD-Gestrichelt
 62
   131
420
  8454143
370
     0
100
AcDbLine
 10
31.549056535
 20
-23.5759172329
 30
0.0
 11
31.1035954653
 21
-22.500479077
 31
0.0
  0
LINE
  5
208
330
1F
100
AcDbEntity
  8
1
  6
SLD-Gestrichelt
 62
   131
420
  8454143
370
     0
100
AcDbLine
 10
25.0764470299
 20
-30.0485267381
 30
0.0
 11
24.0010088739
 21
-29.6030656684
 31
0.0
  0
LINE
  5
209
330
1F
100
AcDbEntity
  8
1
  6
SLD-Gestrichelt
 62
   131
420
  8454143
370
     0
100
AcDbLine
 10
24.0010088739
 20
-29.6030656684
 30
0.0
 11
23.8595875177
 21
-29.4616443121
 31
0.0
  0
LINE
  5
20A
330
1F
100
AcDbEntity
  8
1
  6
SLD-Gestrichelt
 62
   131
420
  8454143
370
     0
100
AcDbLine
 10
24.0010088739
 20
-29.6030656684
 30
0.0
 11
23.8010088739
 21
-29.6030656684
 31
0.0
  0
LINE
  5
20B
330
1F
100
AcDbEntity
  8
1
  6
SLD-Gestrichelt
 62
   131
420
  8454143
370
     0
100
AcDbLine
 10
24.0010088739
 20
-31.1978924856
 30
0.0
 11
23.8010088739
 21
-31.1978924856
 31
0.0
  0
LINE
  5
20C
330
1F
100
AcDbEntity
  8
1
  6
SLD-Gestrichelt
 62
   131
420
  8454143
370
     0
100
AcDbLine
 10
32.6984222825
 20
-22.500479077
 30
0.0
 11
32.6984222825
 21
-22.300479077
 31
0.0
  0
LINE
  5
20D
330
1F
100
AcDbEntity
  8
1
  6
SLD-Gestrichelt
 62
   131
420
  8454143
370
     0
100
AcDbLine
 10
31.1035954653
 20
-22.500479077
 30
0.0
 11
31.1035954653
 21
-22.300479077
 31
0.0
  0
LINE
  5
20E
330
1F
100
AcDbEntity
  8
1
  6
SLD-Gestrichelt
 62
   131
420
  8454143
370
     0
100
AcDbLine
 10
32.2010088739
 20
-22.300479077
 30
0.0
 11
32.6984222825
 21
-22.300479077
 31
0.0
  0
CIRCLE
  5
20F
330
1F
100
AcDbEntity
  8
1
  6
SLD-Gestrichelt
 62
   131
420
  8454143
370
     0
100
AcDbCircle
 10
31.9010088739
 20
-30.400479077
 30
0.0
 40
2.808850000000003
  0
ARC
  5
210
330
1F
100
AcDbEntity
  8
1
  6
SLD-Gestrichelt
 62
   131
420
  8454143
370
     0
100
AcDbCircle
 10
32.6984222825
 20
-22.500479077
 30
0.0
 40
0.2000000000000028
100
AcDbArc
 50
45.0
 51
90.0
  0
CIRCLE
  5
211
330
1F
100
AcDbEntity
  8
1
  6
SLD-Gestrichelt
 62
   131
420
  8454143
370
     0
100
AcDbCircle
 10
31.9010088739
 20
-30.400479077
 30
0.0
 40
3.650000000000002
  0
CIRCLE
  5
212
330
1F
100
AcDbEntity
  8
1
  6
SLD-Gestrichelt
 62
   131
420
  8454143
370
     0
100
AcDbCircle
 10
31.9010088739
 20
-30.400479077
 30
0.0
 40
3.738163490354236
  0
LWPOLYLINE
  5
213
330
1F
100
AcDbEntity
  8
1
  6
SLD-Gestrichelt
 62
   131
420
  8454143
370
     0
100
AcDbPolyline
 90
       38
 70
   128
 43
0.0
 10
31.9010088739
 20
-12.453198155
 10
32.3657611298
 20
-12.4334200317
 10
32.8171433094
 20
-12.3746546425
 10
33.2421699694
 20
-12.2785925606
 10
33.6286138665
 20
-12.1479973171
 10
33.9653577133
 20
-11.9866258996
 10
34.2427140027
 20
-11.7991206699
 10
34.452703699
 20
-11.5908758119
 10
34.589285781
 20
-11.3678821512
 10
34.648531031
 20
-11.1365548094
 10
34.6287350709
 20
-10.9035486528
 10
34.5304673944
 20
-10.6755668445
 10
34.3565549838
 20
-10.4591680058
 10
34.1120009824
 20
-10.2605775375
 10
33.8038407636
 20
-10.0855085258
 10
33.4409395358
 20
-9.9389973873
 10
33.0337373066
 20
-9.8252589807
 10
32.5939485427
 20
-9.7475653529
 10
32.1342251662
 20
-9.7081516082
 10
31.6677925816
 20
-9.7081516082
 10
31.2080692051
 20
-9.7475653529
 10
30.7682804412
 20
-9.8252589807
 10
30.361078212
 20
-9.9389973873
 10
29.9981769842
 20
-10.0855085258
 10
29.6900167654
 20
-10.2605775375
 10
29.445462764
 20
-10.4591680058
 10
29.2715503534
 20
-10.6755668445
 10
29.1732826769
 20
-10.9035486528
 10
29.1534867168
 20
-11.1365548094
 10
29.2127319668
 20
-11.3678821512
 10
29.3493140488
 20
-11.5908758119
 10
29.5593037451
 20
-11.7991206699
 10
29.8366600344
 20
-11.9866258996
 10
30.1734038813
 20
-12.1479973171
 10
30.5598477784
 20
-12.2785925606
 10
30.9848744384
 20
-12.3746546425
 10
31.436256618
 20
-12.4334200317
 10
31.9010088739
 20
-12.453198155
  0
LINE
  5
214
330
1F
100
AcDbEntity
  8
1
  6
SLD-Gestrichelt
 62
   131
420
  8454143
370
     0
100
AcDbLine
 10
29.642210364
 20
-14.4389269606
 30
0.0
 11
23.8595875177
 21
-11.5476155374
 31
0.0
  0
SPLINE
  5
215
330
1F
100
AcDbEntity
  8
1
  6
SLD-Gestrichelt
 62
   131
420
  8454143
370
     0
100
AcDbSpline
210
0.0
220
0.0
230
1.0
 70
     8
 71
     3
 72
     8
 73
     4
 74
     0
 42
0.00000001
 43
0.00000001
 12
1.0
 22
0.0
 32
0.0
 13
1.0
 23
0.0
 33
0.0
 40
0.0
 40
0.0
 40
0.0
 40
0.0
 40
1.0
 40
1.0
 40
1.0
 40
1.0
 10
33.70100887389471
 20
-8.20045849955621
 30
0.0
 10
35.46477305140873
 20
-9.09863950729269
 30
0.0
 10
37.23195269837495
 20
-9.995138333274726
 30
0.0
 10
39.00100887389476
 20
-10.89071293430359
 30
0.0
  0
LINE
  5
216
330
1F
100
AcDbEntity
  8
1
  6
SLD-Gestrichelt
 62
   131
420
  8454143
370
     0
100
AcDbLine
 10
31.1035954653
 20
15.271801845
 30
0.0
 11
32.2010088739
 21
15.271801845
 31
0.0
  0
ARC
  5
217
330
1F
100
AcDbEntity
  8
1
  6
SLD-Gestrichelt
 62
   131
420
  8454143
370
     0
100
AcDbCircle
 10
31.0971138415
 20
15.5965718139
 30
0.0
 40
0.3248346412399442
100
AcDbArc
 50
245.4548274536
 51
271.1433335301
  0
LINE
  5
218
330
1F
100
AcDbEntity
  8
1
  6
SLD-Gestrichelt
 62
   131
420
  8454143
370
     0
100
AcDbLine
 10
23.8595875177
 20
18.8523844626
 30
0.0
 11
30.9621741091
 21
15.3010911669
 31
0.0
  0
ARC
  5
219
330
1F
100
AcDbEntity
  8
1
  6
SLD-Gestrichelt
 62
   131
420
  8454143
370
     0
100
AcDbCircle
 10
23.8886238894
 20
18.9360583884
 30
0.0
 40
0.0885688248703111
100
AcDbArc
 50
188.4162473377
 51
250.8622971378
  0
ARC
  5
21A
330
1F
100
AcDbEntity
  8
1
  6
SLD-Gestrichelt
 62
   131
420
  8454143
370
     0
100
AcDbCircle
 10
23.8886238894
 20
19.7075453017
 30
0.0
 40
0.0885688248703141
100
AcDbArc
 50
109.1377028622
 51
171.5837526623
  0
LINE
  5
21B
330
1F
100
AcDbEntity
  8
1
  6
SLD-Gestrichelt
 62
   131
420
  8454143
370
     0
100
AcDbLine
 10
32.3312594493
 20
22.6949336488
 30
0.0
 11
31.4707582985
 21
22.6949336488
 31
0.0
  0
LINE
  5
21C
330
1F
100
AcDbEntity
  8
1
  6
SLD-Gestrichelt
 62
   131
420
  8454143
370
     0
100
AcDbLine
 10
33.7010088739
 20
16.4440621896
 30
0.0
 11
38.8680383426
 21
19.0668214241
 31
0.0
  0
LINE
  5
21D
330
1F
100
AcDbEntity
  8
1
  6
SLD-Gestrichelt
 62
   131
420
  8454143
370
     0
100
AcDbLine
 10
32.2010088739
 20
16.4440621896
 30
0.0
 11
33.7010088739
 21
16.4440621896
 31
0.0
  0
LINE
  5
21E
330
1F
100
AcDbEntity
  8
1
  6
SLD-Gestrichelt
 62
   131
420
  8454143
370
     0
100
AcDbLine
 10
32.2010088739
 20
15.271801845
 30
0.0
 11
32.2010088739
 21
16.4440621896
 31
0.0
  0
LWPOLYLINE
  5
21F
330
1F
100
AcDbEntity
  8
1
  6
SLD-Gestrichelt
 62
   131
420
  8454143
370
     0
100
AcDbPolyline
 90
       38
 70
   128
 43
0.0
 10
31.9010088739
 20
20.696801845
 10
32.3657611298
 20
20.6770237218
 10
32.8171433094
 20
20.6182583325
 10
33.2421699694
 20
20.5221962506
 10
33.6286138665
 20
20.3916010072
 10
33.9653577133
 20
20.2302295897
 10
34.2427140027
 20
20.0427243599
 10
34.452703699
 20
19.834479502
 10
34.589285781
 20
19.6114858413
 10
34.648531031
 20
19.3801584994
 10
34.6287350709
 20
19.1471523429
 10
34.5304673944
 20
18.9191705345
 10
34.3565549838
 20
18.7027716959
 10
34.1120009824
 20
18.5041812276
 10
33.8038407636
 20
18.3291122159
 10
33.4409395358
 20
18.1826010773
 10
33.0337373066
 20
18.0688626708
 10
32.5939485427
 20
17.991169043
 10
32.1342251662
 20
17.9517552983
 10
31.6677925816
 20
17.9517552983
 10
31.2080692051
 20
17.991169043
 10
30.7682804412
 20
18.0688626708
 10
30.361078212
 20
18.1826010773
 10
29.9981769842
 20
18.3291122159
 10
29.6900167654
 20
18.5041812276
 10
29.445462764
 20
18.7027716959
 10
29.2715503534
 20
18.9191705345
 10
29.1732826769
 20
19.1471523429
 10
29.1534867168
 20
19.3801584994
 10
29.2127319668
 20
19.6114858413
 10
29.3493140488
 20
19.834479502
 10
29.5593037451
 20
20.0427243599
 10
29.8366600344
 20
20.2302295897
 10
30.1734038813
 20
20.3916010072
 10
30.5598477784
 20
20.5221962506
 10
30.9848744384
 20
20.6182583325
 10
31.436256618
 20
20.6770237218
 10
31.9010088739
 20
20.696801845
  0
LINE
  5
220
330
1F
100
AcDbEntity
  8
1
  6
SLD-Gestrichelt
 62
   131
420
  8454143
370
     0
100
AcDbLine
 10
29.642210364
 20
22.6825306506
 30
0.0
 11
23.8595875177
 21
19.7912192275
 31
0.0
  0
LINE
  5
221
330
1F
100
AcDbEntity
  8
1
  6
SLD-Gestrichelt
 62
   131
420
  8454143
370
     0
100
AcDbLine
 10
23.8010088739
 20
-15.5991857813
 30
0.0
 11
23.8010088739
 21
-11.4769048593
 31
0.0
  0
LINE
  5
222
330
1F
100
AcDbEntity
  8
1
  6
SLD-Gestrichelt
 62
   131
420
  8454143
370
     0
100
AcDbLine
 10
23.8595875177
 20
-15.6698964594
 30
0.0
 11
23.8595875177
 21
-11.5476155374
 31
0.0
  0
ARC
  5
223
330
1F
100
AcDbEntity
  8
1
  6
SLD-Gestrichelt
 62
   131
420
  8454143
370
     0
100
AcDbCircle
 10
23.8886238894
 20
-11.4639416116
 30
0.0
 40
0.0885688248703152
100
AcDbArc
 50
188.4162473377
 51
250.8622971378
  0
LINE
  5
224
330
1F
100
AcDbEntity
  8
1
  6
SLD-Gestrichelt
 62
   131
420
  8454143
370
     0
100
AcDbLine
 10
23.8010088739
 20
-11.4769048593
 30
0.0
 11
23.8010088739
 21
-10.6794914507
 31
0.0
  0
SPLINE
  5
225
330
1F
100
AcDbEntity
  8
1
  6
SLD-Gestrichelt
 62
   131
420
  8454143
370
     0
100
AcDbSpline
210
0.0
220
0.0
230
1.0
 70
     8
 71
     3
 72
    18
 73
    14
 74
     0
 42
0.00000001
 43
0.00000001
 12
1.0
 22
0.0
 32
0.0
 13
1.0
 23
0.0
 33
0.0
 40
0.0
 40
0.0
 40
0.0
 40
0.0
 40
0.1250000000000005
 40
0.1250000000000005
 40
0.2500000000000011
 40
0.2500000000000011
 40
0.5000000000000007
 40
0.5000000000000007
 40
0.7500000000000002
 40
0.7500000000000002
 40
0.8750000000000001
 40
0.8750000000000001
 40
1.0
 40
1.0
 40
1.0
 40
1.0
 10
14.25497044039996
 20
15.40299948463494
 30
0.0
 10
14.20633627142583
 20
15.29029767449034
 30
0.0
 10
14.16863782179853
 20
15.1750486814798
 30
0.0
 10
14.12025213331069
 20
14.95117415104349
 30
0.0
 10
14.10895195679481
 20
14.83923512478666
 30
0.0
 10
14.11732506780743
 20
14.52457543881413
 30
0.0
 10
14.17951516404309
 20
14.33817576910348
 30
0.0
 10
14.39432365989106
 20
14.06127948535093
 30
0.0
 10
14.54587567317493
 20
13.97169667213703
 30
0.0
 10
14.80032019786284
 20
13.92685302614593
 30
0.0
 10
14.89033854623215
 20
13.92639063210227
 30
0.0
 10
15.07450832489169
 20
13.95539850168121
 30
0.0
 10
15.16689316340612
 20
13.98429445371064
 30
0.0
 10
15.25945321987533
 20
14.02767663612321
 30
0.0
  0
SPLINE
  5
226
330
1F
100
AcDbEntity
  8
1
  6
SLD-Gestrichelt
 62
   131
420
  8454143
370
     0
100
AcDbSpline
210
0.0
220
0.0
230
1.0
 70
     8
 71
     3
 72
     8
 73
     4
 74
     0
 42
0.00000001
 43
0.00000001
 12
1.0
 22
0.0
 32
0.0
 13
1.0
 23
0.0
 33
0.0
 40
0.0
 40
0.0
 40
0.0
 40
0.0
 40
1.0
 40
1.0
 40
1.0
 40
1.0
 10
16.09763046233823
 20
19.60247182435936
 30
0.0
 10
15.48684744226259
 20
18.19905263310336
 30
0.0
 10
14.86066410840972
 20
16.80659646629938
 30
0.0
 10
14.2549704403999
 20
15.40299948463499
 30
0.0
  0
LINE
  5
227
330
1F
100
AcDbEntity
  8
1
  6
SLD-Gestrichelt
 62
   131
420
  8454143
370
     0
100
AcDbLine
 10
16.0976304623
 20
28.9067022224
 30
0.0
 11
16.0976304623
 21
19.6024718244
 31
0.0
  0
SPLINE
  5
228
330
1F
100
AcDbEntity
  8
1
  6
SLD-Gestrichelt
 62
   131
420
  8454143
370
     0
100
AcDbSpline
210
0.0
220
0.0
230
1.0
 70
     8
 71
     3
 72
     8
 73
     4
 74
     0
 42
0.00000001
 43
0.00000001
 12
1.0
 22
0.0
 32
0.0
 13
1.0
 23
0.0
 33
0.0
 40
0.0
 40
0.0
 40
0.0
 40
0.0
 40
1.0
 40
1.0
 40
1.0
 40
1.0
 10
14.25497044039983
 20
-27.11136553652797
 30
0.0
 10
14.1914453632238
 20
-27.07305365525989
 30
0.0
 10
14.14805826507991
 20
-27.0507923221636
 30
0.0
 10
14.12643356399523
 20
-27.04428743250335
 30
0.0
  0
SPLINE
  5
229
330
1F
100
AcDbEntity
  8
1
  6
SLD-Gestrichelt
 62
   131
420
  8454143
370
     0
100
AcDbSpline
210
0.0
220
0.0
230
1.0
 70
     8
 71
     3
 72
    13
 73
     9
 74
     0
 42
0.00000001
 43
0.00000001
 12
1.0
 22
0.0
 32
0.0
 13
1.0
 23
0.0
 33
0.0
 40
0.0
 40
0.0
 40
0.0
 40
0.0
 40
0.1362133168397678
 40
0.3392149019823527
 40
0.5446712804680127
 40
0.7578514820044642
 40
0.9772203272906256
 40
1.0
 40
1.0
 40
1.0
 40
1.0
 10
14.12797099388969
 20
-27.05424307391253
 30
0.0
 10
14.1237915162233
 20
-27.05704918207222
 30
0.0
 10
14.11338327465167
 20
-27.06403729253327
 30
0.0
 10
14.25107342566586
 20
-27.18274949841489
 30
0.0
 10
14.49980151256057
 20
-27.38785249015426
 30
0.0
 10
14.83867183985016
 20
-27.67360387790189
 30
0.0
 10
15.10659466506884
 20
-27.91383046695605
 30
0.0
 10
15.24630977960929
 20
-28.04449818038299
 30
0.0
 10
15.25945321987534
 20
-28.05679050316982
 30
0.0
  0
SPLINE
  5
22A
330
1F
100
AcDbEntity
  8
1
  6
SLD-Gestrichelt
 62
   131
420
  8454143
370
     0
100
AcDbSpline
210
0.0
220
0.0
230
1.0
 70
     8
 71
     3
 72
     8
 73
     4
 74
     0
 42
0.00000001
 43
0.00000001
 12
1.0
 22
0.0
 32
0.0
 13
1.0
 23
0.0
 33
0.0
 40
0.0
 40
0.0
 40
0.0
 40
0.0
 40
1.0
 40
1.0
 40
1.0
 40
1.0
 10
16.09763046233823
 20
-28.20065244292402
 30
0.0
 10
15.48682975301274
 20
-27.82908283508973
 30
0.0
 10
14.86068731112202
 20
-27.4766724966263
 30
0.0
 10
14.25497044039981
 20
-27.11136553652796
 30
0.0
  0
LINE
  5
22B
330
1F
100
AcDbEntity
  8
1
  6
SLD-Gestrichelt
 62
   131
420
  8454143
370
     0
100
AcDbLine
 10
16.0976304623
 20
-14.4540697267
 30
0.0
 11
16.0976304623
 21
-28.2006524429
 31
0.0
  0
SPLINE
  5
22C
330
1F
100
AcDbEntity
  8
1
  6
SLD-Gestrichelt
 62
   131
420
  8454143
370
     0
100
AcDbSpline
210
0.0
220
0.0
230
1.0
 70
     8
 71
     3
 72
    18
 73
    14
 74
     0
 42
0.00000001
 43
0.00000001
 12
1.0
 22
0.0
 32
0.0
 13
1.0
 23
0.0
 33
0.0
 40
0.0
 40
0.0
 40
0.0
 40
0.0
 40
0.1250000000000003
 40
0.1250000000000003
 40
0.2500000000000006
 40
0.2500000000000006
 40
0.4999999999999996
 40
0.4999999999999996
 40
0.7499999999999987
 40
0.7499999999999987
 40
0.8749999999999993
 40
0.8749999999999993
 40
1.0
 40
1.0
 40
1.0
 40
1.0
 10
14.25497044039996
 20
-11.70788697491875
 30
0.0
 10
14.20633627142587
 20
-11.791257588784
 30
0.0
 10
14.16863782179851
 20
-11.88618273164343
 30
0.0
 10
14.12025213331068
 20
-12.08894579177561
 30
0.0
 10
14.10895195679481
 20
-12.19984299155035
 30
0.0
 10
14.11732506780743
 20
-12.54047177566655
 30
0.0
 10
14.17951516404314
 20
-12.7829807063637
 30
0.0
 10
14.39432365989099
 20
-13.23994828119121
 30
0.0
 10
14.54587567317492
 20
-13.45345961627982
 30
0.0
 10
14.80032019786288
 20
-13.71574460552488
 30
0.0
 10
14.89033854623207
 20
-13.79449662587902
 30
0.0
 10
15.07450832489173
 20
-13.92976715573358
 30
0.0
 10
15.16689316340617
 20
-13.98525260765983
 30
0.0
 10
15.25945321987532
 20
-14.02863479007237
 30
0.0
  0
SPLINE
  5
22D
330
1F
100
AcDbEntity
  8
1
  6
SLD-Gestrichelt
 62
   131
420
  8454143
370
     0
100
AcDbSpline
210
0.0
220
0.0
230
1.0
 70
     8
 71
     3
 72
     8
 73
     4
 74
     0
 42
0.00000001
 43
0.00000001
 12
1.0
 22
0.0
 32
0.0
 13
1.0
 23
0.0
 33
0.0
 40
0.0
 40
0.0
 40
0.0
 40
0.0
 40
1.0
 40
1.0
 40
1.0
 40
1.0
 10
16.09763046233822
 20
-8.597701541590464
 30
0.0
 10
15.48690475737539
 20
-9.629465057467648
 30
0.0
 10
14.86060144783504
 20
-10.66969037506345
 30
0.0
 10
14.2549704403999
 20
-11.70788697491878
 30
0.0
  0
LINE
  5
22E
330
1F
100
AcDbEntity
  8
1
  6
SLD-Gestrichelt
 62
   131
420
  8454143
370
     0
100
AcDbLine
 10
16.0976304623
 20
14.4531115727
 30
0.0
 11
16.0976304623
 21
-8.5977015416
 31
0.0
  0
LINE
  5
22F
330
1F
100
AcDbEntity
  8
1
  6
SLD-Gestrichelt
 62
   131
420
  8454143
370
     0
100
AcDbLine
 10
5.0010088739
 20
23.429416356
 30
0.0
 11
5.0010088739
 21
-23.4303745099
 31
0.0
  0
LINE
  5
230
330
1F
100
AcDbEntity
  8
1
  6
SLD-Gestrichelt
 62
   131
420
  8454143
370
     0
100
AcDbLine
 10
23.8595875177
 20
-14.7310616946
 30
0.0
 11
23.8595875177
 21
-10.6087807725
 31
0.0
  0
ARC
  5
231
330
1F
100
AcDbEntity
  8
1
  6
SLD-Gestrichelt
 62
   131
420
  8454143
370
     0
100
AcDbCircle
 10
23.8886238894
 20
-10.6924546983
 30
0.0
 40
0.0885688248702995
100
AcDbArc
 50
109.1377028622
 51
171.5837526623
  0
LINE
  5
232
330
1F
100
AcDbEntity
  8
1
  6
SLD-Gestrichelt
 62
   131
420
  8454143
370
     0
100
AcDbLine
 10
30.9621741091
 20
-11.6359732081
 30
0.0
 11
30.9621741091
 21
-7.0574874768
 31
0.0
  0
ELLIPSE
  5
233
330
1F
100
AcDbEntity
  8
1
  6
SLD-Gestrichelt
 62
   131
420
  8454143
370
     0
100
AcDbEllipse
 10
29.8207527528
 20
-13.0495171827
 30
0.0
 11
1.299038105676665
 21
1.299038105676656
 31
0.0
210
0.0
220
0.0
230
1.0
 40
0.5773502692
 41
0.182425216861706
 42
1.047197551196595
  0
LINE
  5
234
330
1F
100
AcDbEntity
  8
1
  6
SLD-Gestrichelt
 62
   131
420
  8454143
370
     0
100
AcDbLine
 10
23.8595875177
 20
-14.7310616946
 30
0.0
 11
29.8207527528
 21
-11.750479077
 31
0.0
  0
LINE
  5
235
330
1F
100
AcDbEntity
  8
1
  6
SLD-Gestrichelt
 62
   131
420
  8454143
370
     0
100
AcDbLine
 10
23.8595875177
 20
-10.6087807725
 30
0.0
 11
30.9621741091
 21
-7.0574874768
 31
0.0
  0
LINE
  5
236
330
1F
100
AcDbEntity
  8
1
  6
SLD-Gestrichelt
 62
   131
420
  8454143
370
     0
100
AcDbLine
 10
23.8010088739
 20
15.5982276273
 30
0.0
 11
23.8010088739
 21
19.7205085493
 31
0.0
  0
LINE
  5
237
330
1F
100
AcDbEntity
  8
1
  6
SLD-Gestrichelt
 62
   131
420
  8454143
370
     0
100
AcDbLine
 10
23.8595875177
 20
15.6689383054
 30
0.0
 11
23.8595875177
 21
19.7912192275
 31
0.0
  0
ELLIPSE
  5
238
330
1F
100
AcDbEntity
  8
1
  6
SLD-Gestrichelt
 62
   131
420
  8454143
370
     0
100
AcDbEllipse
 10
31.9010088739
 20
29.5563642903
 30
0.0
 11
2.749999999999996
 21
0.0
 31
0.0
210
0.0
220
0.0
230
1.0
 40
0.4242325948
 41
0.0
 42
6.283185307179586
  0
LINE
  5
239
330
1F
100
AcDbEntity
  8
1
  6
SLD-Gestrichelt
 62
   131
420
  8454143
370
     0
100
AcDbLine
 10
23.8595875177
 20
14.7301035406
 30
0.0
 11
23.8595875177
 21
18.8523844626
 31
0.0
  0
LINE
  5
23A
330
1F
100
AcDbEntity
  8
1
  6
SLD-Gestrichelt
 62
   131
420
  8454143
370
     0
100
AcDbLine
 10
32.2010088739
 20
-8.2004584996
 30
0.0
 11
32.2010088739
 21
6.4007641691
 31
0.0
  0
LINE
  5
23B
330
1F
100
AcDbEntity
  8
1
  6
SLD-Gestrichelt
 62
   131
420
  8454143
370
     0
100
AcDbLine
 10
33.7010088739
 20
-8.2004584996
 30
0.0
 11
33.7010088739
 21
6.4007641691
 31
0.0
  0
LINE
  5
23C
330
1F
100
AcDbEntity
  8
1
  6
SLD-Gestrichelt
 62
   131
420
  8454143
370
     0
100
AcDbLine
 10
32.2010088739
 20
-8.2004584996
 30
0.0
 11
33.7010088739
 21
-8.2004584996
 31
0.0
  0
ARC
  5
23D
330
1F
100
AcDbEntity
  8
1
  6
SLD-Gestrichelt
 62
   131
420
  8454143
370
     0
100
AcDbCircle
 10
28.5745155345
 20
-51.7606900292
 30
0.0
 40
40.01248401445846
100
AcDbArc
 50
89.3892723313
 51
109.4371537305
  0
SPLINE
  5
23E
330
1F
100
AcDbEntity
  8
1
  6
SLD-Gestrichelt
 62
   131
420
  8454143
370
     0
100
AcDbSpline
210
0.0
220
0.0
230
1.0
 70
     8
 71
     3
 72
    10
 73
     6
 74
     0
 42
0.00000001
 43
0.00000001
 12
1.0
 22
0.0
 32
0.0
 13
1.0
 23
0.0
 33
0.0
 40
0.0
 40
0.0
 40
0.0
 40
0.0
 40
0.5
 40
0.5
 40
1.0
 40
1.0
 40
1.0
 40
1.0
 10
30.9621741090628
 20
-11.63597320805844
 30
0.0
 10
30.97808886972662
 20
-11.64418045462584
 30
0.0
 10
30.99761526064642
 20
-11.65240238331288
 30
0.0
 10
31.04525348872097
 20
-11.66548041466564
 30
0.0
 10
31.07381524467176
 20
-11.67009431924494
 30
0.0
 10
31.10359546530024
 20
-11.67009431924494
 30
0.0
  0
ARC
  5
23F
330
1F
100
AcDbEntity
  8
1
  6
SLD-Gestrichelt
 62
   131
420
  8454143
370
     0
100
AcDbCircle
 10
31.0971138415
 20
-7.3529681239
 30
0.0
 40
0.3248346412400512
100
AcDbArc
 50
88.8566664699
 51
114.5451725464
  0
LINE
  5
240
330
1F
100
AcDbEntity
  8
1
  6
SLD-Gestrichelt
 62
   131
420
  8454143
370
     0
100
AcDbLine
 10
31.1035954653
 20
-11.6700943192
 30
0.0
 11
32.2010088739
 21
-11.6700943192
 31
0.0
  0
LINE
  5
241
330
1F
100
AcDbEntity
  8
1
  6
SLD-Gestrichelt
 62
   131
420
  8454143
370
     0
100
AcDbLine
 10
32.2010088739
 20
-11.6700943192
 30
0.0
 11
32.2010088739
 21
-8.2004584996
 31
0.0
  0
LINE
  5
242
330
1F
100
AcDbEntity
  8
1
  6
SLD-Gestrichelt
 62
   131
420
  8454143
370
     0
100
AcDbLine
 10
31.1035954653
 20
-7.028198155
 30
0.0
 11
32.2010088739
 21
-7.028198155
 31
0.0
  0
LINE
  5
243
330
1F
100
AcDbEntity
  8
1
  6
SLD-Gestrichelt
 62
   131
420
  8454143
370
     0
100
AcDbLine
 10
29.0010088739
 20
30.9290324272
 30
0.0
 11
29.0010088739
 21
22.1400592425
 31
0.0
  0
SPLINE
  5
244
330
1F
100
AcDbEntity
  8
1
  6
SLD-Gestrichelt
 62
   131
420
  8454143
370
     0
100
AcDbSpline
210
0.0
220
0.0
230
1.0
 70
     8
 71
     3
 72
    10
 73
     6
 74
     0
 42
0.00000001
 43
0.00000001
 12
1.0
 22
0.0
 32
0.0
 13
1.0
 23
0.0
 33
0.0
 40
0.0
 40
0.0
 40
0.0
 40
0.0
 40
0.5
 40
0.5
 40
1.0
 40
1.0
 40
1.0
 40
1.0
 10
33.70100887389471
 20
24.2186002363485
 30
0.0
 10
34.52084994636905
 20
24.75512411861306
 30
0.0
 10
35.38086465323651
 20
25.28169901090104
 30
0.0
 10
37.15522685846781
 20
26.32139329397296
 30
0.0
 10
38.07019249795198
 20
26.83468016005768
 30
0.0
 10
39.00100887389477
 20
27.34143906165922
 30
0.0
  0
LINE
  5
245
330
1F
100
AcDbEntity
  8
1
  6
SLD-Gestrichelt
 62
   131
420
  8454143
370
     0
100
AcDbLine
 10
29.0010088739
 20
-12.9187835685
 30
0.0
 11
32.2010088739
 21
-12.9187835685
 31
0.0
  0
LINE
  5
246
330
1F
100
AcDbEntity
  8
1
  6
SLD-Gestrichelt
 62
   131
420
  8454143
370
     0
100
AcDbLine
 10
32.2010088739
 20
-11.6700943192
 30
0.0
 11
32.2010088739
 21
-12.9187835685
 31
0.0
  0
LINE
  5
247
330
1F
100
AcDbEntity
  8
1
  6
SLD-Gestrichelt
 62
   131
420
  8454143
370
     0
100
AcDbLine
 10
29.0010088739
 20
-11.750479077
 30
0.0
 11
29.8207527528
 21
-11.750479077
 31
0.0
  0
LINE
  5
248
330
1F
100
AcDbEntity
  8
1
  6
SLD-Gestrichelt
 62
   131
420
  8454143
370
     0
100
AcDbLine
 10
32.2010088739
 20
11.149520923
 30
0.0
 11
32.2010088739
 21
15.271801845
 31
0.0
  0
LINE
  5
249
330
1F
100
AcDbEntity
  8
1
  6
SLD-Gestrichelt
 62
   131
420
  8454143
370
     0
100
AcDbLine
 10
32.2010088739
 20
24.2186002363
 30
0.0
 11
33.7010088739
 21
24.2186002363
 31
0.0
  0
LINE
  5
24A
330
1F
100
AcDbEntity
  8
1
  6
SLD-Gestrichelt
 62
   131
420
  8454143
370
     0
100
AcDbLine
 10
33.7010088739
 20
16.4440621896
 30
0.0
 11
33.7010088739
 21
24.2186002363
 31
0.0
  0
LINE
  5
24B
330
1F
100
AcDbEntity
  8
1
  6
SLD-Gestrichelt
 62
   131
420
  8454143
370
     0
100
AcDbLine
 10
32.2010088739
 20
16.4440621896
 30
0.0
 11
32.2010088739
 21
24.2186002363
 31
0.0
  0
LINE
  5
24C
330
1F
100
AcDbEntity
  8
1
  6
SLD-Gestrichelt
 62
   131
420
  8454143
370
     0
100
AcDbLine
 10
32.2010088739
 20
-17.8183151442
 30
0.0
 11
33.7010088739
 21
-17.8183151442
 31
0.0
  0
LINE
  5
24D
330
1F
100
AcDbEntity
  8
1
  6
SLD-Gestrichelt
 62
   131
420
  8454143
370
     0
100
AcDbLine
 10
33.7010088739
 20
-17.8183151442
 30
0.0
 11
34.1987234358
 21
-18.5417498565
 31
0.0
  0
LINE
  5
24E
330
1F
100
AcDbEntity
  8
1
  6
SLD-Gestrichelt
 62
   131
420
  8454143
370
     0
100
AcDbLine
 10
32.2010088739
 20
-12.9187835685
 30
0.0
 11
32.2010088739
 21
-17.8183151442
 31
0.0
  0
LINE
  5
24F
330
1F
100
AcDbEntity
  8
1
  6
SLD-Gestrichelt
 62
   131
420
  8454143
370
     0
100
AcDbLine
 10
33.7010088739
 20
-24.6449997662
 30
0.0
 11
33.7010088739
 21
-17.8183151442
 31
0.0
  0
LINE
  5
250
330
1F
100
AcDbEntity
  8
1
  6
SLD-Gestrichelt
 62
   131
420
  8454143
370
     0
100
AcDbLine
 10
32.2010088739
 20
-24.6449997662
 30
0.0
 11
32.2010088739
 21
-17.8183151442
 31
0.0
  0
SPLINE
  5
251
330
1F
100
AcDbEntity
  8
1
  6
SLD-Gestrichelt
 62
   131
420
  8454143
370
     0
100
AcDbSpline
210
0.0
220
0.0
230
1.0
 70
     8
 71
     3
 72
    14
 73
    10
 74
     0
 42
0.00000001
 43
0.00000001
 12
1.0
 22
0.0
 32
0.0
 13
1.0
 23
0.0
 33
0.0
 40
0.0
 40
0.0
 40
0.0
 40
0.0
 40
0.25
 40
0.25
 40
0.5
 40
0.5
 40
0.75
 40
0.75
 40
1.0
 40
1.0
 40
1.0
 40
1.0
 10
5.301008873894766
 20
9.692817575867792
 30
0.0
 10
5.440106875066049
 20
9.69281757586779
 30
0.0
 10
5.576503539671497
 20
9.708687991116335
 30
0.0
 10
5.823129048720874
 20
9.765050861682528
 30
0.0
 10
5.933428640296913
 20
9.805496640232436
 30
0.0
 10
6.112426709056709
 20
9.89822012531345
 30
0.0
 10
6.182332021181531
 20
9.950792755778991
 30
0.0
 10
6.276558366128996
 20
10.05839298365277
 30
0.0
 10
6.301008873894766
 20
10.11314957422914
 30
0.0
 10
6.301008873894765
 20
10.16613294473675
 30
0.0
  0
LINE
  5
252
330
1F
100
AcDbEntity
  8
1
  6
SLD-Gestrichelt
 62
   131
420
  8454143
370
     0
100
AcDbLine
 10
0.0010088739
 20
9.6928175759
 30
0.0
 11
5.3010088739
 21
9.6928175759
 31
0.0
  0
LINE
  5
253
330
1F
100
AcDbEntity
  8
1
  6
SLD-Gestrichelt
 62
   131
420
  8454143
370
     0
100
AcDbLine
 10
5.3010088739
 20
-9.6937757298
 30
0.0
 11
0.0010088739
 21
-9.6937757298
 31
0.0
  0
SPLINE
  5
254
330
1F
100
AcDbEntity
  8
1
  6
SLD-Gestrichelt
 62
   131
420
  8454143
370
     0
100
AcDbSpline
210
0.0
220
0.0
230
1.0
 70
     8
 71
     3
 72
    14
 73
    10
 74
     0
 42
0.00000001
 43
0.00000001
 12
1.0
 22
0.0
 32
0.0
 13
1.0
 23
0.0
 33
0.0
 40
0.0
 40
0.0
 40
0.0
 40
0.0
 40
0.25
 40
0.25
 40
0.5
 40
0.5
 40
0.75
 40
0.75
 40
1.0
 40
1.0
 40
1.0
 40
1.0
 10
6.301008873894765
 20
-10.16709109868538
 30
0.0
 10
6.301008873894765
 20
-10.11402368870134
 30
0.0
 10
6.276951321008942
 20
-10.05984948267453
 30
0.0
 10
6.182195144429507
 20
-9.951545122720244
 30
0.0
 10
6.113264162583986
 20
-9.899640189509189
 30
0.0
 10
5.933048673140599
 20
-9.806229939452898
 30
0.0
 10
5.824200184006173
 20
-9.766300006714166
 30
0.0
 10
5.5765658715477
 20
-9.70961440327452
 30
0.0
 10
5.440443341196763
 20
-9.693775729816458
 30
0.0
 10
5.301008873894765
 20
-9.693775729816457
 30
0.0
  0
LINE
  5
255
330
1F
100
AcDbEntity
  8
1
  6
SLD-Gestrichelt
 62
   131
420
  8454143
370
     0
100
AcDbLine
 10
20.0010088739
 20
-11.000479077
 30
0.0
 11
20.0010088739
 21
10.999520923
 31
0.0
  0
LINE
  5
256
330
1F
100
AcDbEntity
  8
1
  6
SLD-Gestrichelt
 62
   131
420
  8454143
370
     0
100
AcDbLine
 10
31.2010088739
 20
-8.500479077
 30
0.0
 11
31.2010088739
 21
8.499520923
 31
0.0
  0
LINE
  5
257
330
1F
100
AcDbEntity
  8
1
  6
SLD-Gestrichelt
 62
   131
420
  8454143
370
     0
100
AcDbLine
 10
24.0010088739
 20
-8.500479077
 30
0.0
 11
24.0010088739
 21
8.499520923
 31
0.0
  0
LINE
  5
258
330
1F
100
AcDbEntity
  8
1
  6
SLD-Gestrichelt
 62
   131
420
  8454143
370
     0
100
AcDbLine
 10
6.3010088739
 20
-23.6874434686
 30
0.0
 11
6.3010088739
 21
-10.1670910987
 31
0.0
  0
LINE
  5
259
330
1F
100
AcDbEntity
  8
1
  6
SLD-Gestrichelt
 62
   131
420
  8454143
370
     0
100
AcDbLine
 10
5.3010088739
 20
-23.4334478049
 30
0.0
 11
5.3010088739
 21
-9.6937757298
 31
0.0
  0
LINE
  5
25A
330
1F
100
AcDbEntity
  8
1
  6
SLD-Gestrichelt
 62
   131
420
  8454143
370
     0
100
AcDbLine
 10
6.3010088739
 20
10.1661329447
 30
0.0
 11
6.3010088739
 21
23.6864853146
 31
0.0
  0
LINE
  5
25B
330
1F
100
AcDbEntity
  8
1
  6
SLD-Gestrichelt
 62
   131
420
  8454143
370
     0
100
AcDbLine
 10
5.3010088739
 20
9.6928175759
 30
0.0
 11
5.3010088739
 21
23.432489651
 31
0.0
  0
LINE
  5
25C
330
1F
100
AcDbEntity
  8
1
  6
SLD-Gestrichelt
 62
   131
420
  8454143
370
     0
100
AcDbLine
 10
29.642210364
 20
-37.1219366882
 30
0.0
 11
23.8595875177
 21
-31.3393138418
 31
0.0
  0
LINE
  5
25D
330
1F
100
AcDbEntity
  8
1
  6
SLD-Gestrichelt
 62
   131
420
  8454143
370
     0
100
AcDbLine
 10
32.2010088739
 20
-24.6449997662
 30
0.0
 11
33.7010088739
 21
-24.6449997662
 31
0.0
  0
SPLINE
  5
25E
330
1F
100
AcDbEntity
  8
1
  6
SLD-Gestrichelt
 62
   131
420
  8454143
370
     0
100
AcDbSpline
210
0.0
220
0.0
230
1.0
 70
     8
 71
     3
 72
     8
 73
     4
 74
     0
 42
0.00000001
 43
0.00000001
 12
1.0
 22
0.0
 32
0.0
 13
1.0
 23
0.0
 33
0.0
 40
0.0
 40
0.0
 40
0.0
 40
0.0
 40
1.0
 40
1.0
 40
1.0
 40
1.0
 10
33.70100887389471
 20
-24.64499976616607
 30
0.0
 10
35.46476048396525
 20
-26.44134898192443
 30
0.0
 10
37.23194701510809
 20
-28.23435367936023
 30
0.0
 10
39.00100887389477
 20
-30.02550863566086
 30
0.0
  0
LINE
  5
25F
330
1F
100
AcDbEntity
  8
1
  6
SLD-Gestrichelt
 62
   131
420
  8454143
370
     0
100
AcDbLine
 10
23.8010088739
 20
-31.1978924856
 30
0.0
 11
23.8010088739
 21
-29.6030656684
 31
0.0
  0
ARC
  5
260
330
1F
100
AcDbEntity
  8
1
  6
SLD-Gestrichelt
 62
   131
420
  8454143
370
     0
100
AcDbCircle
 10
24.0010088739
 20
-31.1978924856
 30
0.0
 40
0.2000000000000021
100
AcDbArc
 50
180.0
 51
225.0
  0
LINE
  5
261
330
1F
100
AcDbEntity
  8
1
  6
SLD-Gestrichelt
 62
   131
420
  8454143
370
     0
100
AcDbLine
 10
23.8595875177
 20
-29.4616443121
 30
0.0
 11
30.9621741091
 21
-22.3590577207
 31
0.0
  0
ARC
  5
262
330
1F
100
AcDbEntity
  8
1
  6
SLD-Gestrichelt
 62
   131
420
  8454143
370
     0
100
AcDbCircle
 10
24.0010088739
 20
-29.6030656684
 30
0.0
 40
0.1999999999999971
100
AcDbArc
 50
135.0
 51
180.0
  0
ARC
  5
263
330
1F
100
AcDbEntity
  8
1
  6
SLD-Gestrichelt
 62
   131
420
  8454143
370
     0
100
AcDbCircle
 10
31.1035954653
 20
-22.500479077
 30
0.0
 40
0.2000000000000021
100
AcDbArc
 50
90.0
 51
135.0
  0
LINE
  5
264
330
1F
100
AcDbEntity
  8
1
  6
SLD-Gestrichelt
 62
   131
420
  8454143
370
     0
100
AcDbLine
 10
31.1035954653
 20
-22.300479077
 30
0.0
 11
32.2010088739
 21
-22.300479077
 31
0.0
  0
LINE
  5
265
330
1F
100
AcDbEntity
  8
1
  6
SLD-Gestrichelt
 62
   131
420
  8454143
370
     0
100
AcDbLine
 10
29.0010088739
 20
23.499520923
 30
0.0
 11
29.0010088739
 21
22.0027325382
 31
0.0
  0
LINE
  5
266
330
1F
100
AcDbEntity
  8
1
  6
SLD-Gestrichelt
 62
   131
420
  8454143
370
     0
100
AcDbLine
 10
29.0010088739
 20
23.499520923
 30
0.0
 11
29.8207527528
 21
23.499520923
 31
0.0
  0
LINE
  5
267
330
1F
100
AcDbEntity
  8
1
  6
SLD-Gestrichelt
 62
   131
420
  8454143
370
     0
100
AcDbLine
 10
29.8207527528
 20
23.499520923
 30
0.0
 11
30.9621741091
 21
22.3580995668
 31
0.0
  0
SPLINE
  5
268
330
1F
100
AcDbEntity
  8
1
  6
SLD-Gestrichelt
 62
   131
420
  8454143
370
     0
100
AcDbSpline
210
0.0
220
0.0
230
1.0
 70
     8
 71
     3
 72
    10
 73
     6
 74
     0
 42
0.00000001
 43
0.00000001
 12
1.0
 22
0.0
 32
0.0
 13
1.0
 23
0.0
 33
0.0
 40
0.0
 40
0.0
 40
0.0
 40
0.0
 40
0.5
 40
0.5
 40
1.0
 40
1.0
 40
1.0
 40
1.0
 10
30.9621741090628
 20
22.35809956678787
 30
0.0
 10
30.97808886972662
 20
22.34218480612409
 30
0.0
 10
30.99761526064642
 20
22.32790876756761
 30
0.0
 10
31.04525348872097
 20
22.30644386729855
 30
0.0
 10
31.07381524467176
 20
22.29952092302568
 30
0.0
 10
31.10359546530024
 20
22.29952092302568
 30
0.0
  0
LINE
  5
269
330
1F
100
AcDbEntity
  8
1
  6
SLD-Gestrichelt
 62
   131
420
  8454143
370
     0
100
AcDbLine
 10
31.1035954653
 20
22.299520923
 30
0.0
 11
32.2010088739
 21
22.299520923
 31
0.0
  0
LINE
  5
26A
330
1F
100
AcDbEntity
  8
1
  6
SLD-Gestrichelt
 62
   131
420
  8454143
370
     0
100
AcDbLine
 10
29.0010088739
 20
22.1400592425
 30
0.0
 11
32.2010088739
 21
22.1400592425
 31
0.0
  0
ARC
  5
26B
330
1F
100
AcDbEntity
  8
1
  6
SLD-Gestrichelt
 62
   131
420
  8454143
370
     0
100
AcDbCircle
 10
29.0010088739
 20
46.499520923
 30
0.0
 40
24.35946168055497
100
AcDbArc
 50
232.7458549892
 51
270.0
  0
LINE
  5
26C
330
1F
100
AcDbEntity
  8
1
  6
SLD-Gestrichelt
 62
   131
420
  8454143
370
     0
100
AcDbLine
 10
29.0010088739
 20
-23.500479077
 30
0.0
 11
29.0010088739
 21
-22.0036906921
 31
0.0
  0
ARC
  5
26D
330
1F
100
AcDbEntity
  8
1
  6
SLD-Gestrichelt
 62
   131
420
  8454143
370
     0
100
AcDbCircle
 10
29.0010088739
 20
-46.500479077
 30
0.0
 40
24.35946168055498
100
AcDbArc
 50
90.0
 51
127.2541450108
  0
ARC
  5
26E
330
1F
100
AcDbEntity
  8
1
  6
SLD-Gestrichelt
 62
   131
420
  8454143
370
     0
100
AcDbCircle
 10
29.0010088739
 20
-46.500479077
 30
0.0
 40
23.0
100
AcDbArc
 50
90.0
 51
126.6881236877
  0
LINE
  5
26F
330
1F
100
AcDbEntity
  8
1
  6
SLD-Gestrichelt
 62
   131
420
  8454143
370
     0
100
AcDbLine
 10
29.0010088739
 20
-22.1410173964
 30
0.0
 11
32.2010088739
 21
-22.1410173964
 31
0.0
  0
LINE
  5
270
330
1F
100
AcDbEntity
  8
1
  6
SLD-Gestrichelt
 62
   131
420
  8454143
370
     0
100
AcDbLine
 10
29.0010088739
 20
-23.500479077
 30
0.0
 11
29.8207527528
 21
-23.500479077
 31
0.0
  0
SPLINE
  5
271
330
1F
100
AcDbEntity
  8
1
  6
SLD-Gestrichelt
 62
   131
420
  8454143
370
     0
100
AcDbSpline
210
0.0
220
0.0
230
1.0
 70
     8
 71
     3
 72
     8
 73
     4
 74
     0
 42
0.00000001
 43
0.00000001
 12
1.0
 22
0.0
 32
0.0
 13
1.0
 23
0.0
 33
0.0
 40
0.0
 40
0.0
 40
0.0
 40
0.0
 40
1.0
 40
1.0
 40
1.0
 40
1.0
 10
19.4043872854513
 20
26.22096043094328
 30
0.0
 10
18.19553813451528
 20
24.0739396787274
 30
0.0
 10
17.08735137897537
 20
21.87659091860664
 30
0.0
 10
16.09763046233823
 20
19.60247182435936
 30
0.0
  0
LINE
  5
272
330
1F
100
AcDbEntity
  8
1
  6
SLD-Gestrichelt
 62
   131
420
  8454143
370
     0
100
AcDbLine
 10
19.4043872855
 20
32.5423396236
 30
0.0
 11
19.4043872855
 21
26.2209604309
 31
0.0
  0
SPLINE
  5
273
330
1F
100
AcDbEntity
  8
1
  6
SLD-Gestrichelt
 62
   131
420
  8454143
370
     0
100
AcDbSpline
210
0.0
220
0.0
230
1.0
 70
     8
 71
     3
 72
    18
 73
    14
 74
     0
 42
0.00000001
 43
0.00000001
 12
1.0
 22
0.0
 32
0.0
 13
1.0
 23
0.0
 33
0.0
 40
0.0
 40
0.0
 40
0.0
 40
0.0
 40
0.2500000000000009
 40
0.2500000000000009
 40
0.3750000000000007
 40
0.3750000000000007
 40
0.5000000000000006
 40
0.5000000000000006
 40
0.6250000000000004
 40
0.6250000000000004
 40
0.7500000000000002
 40
0.7500000000000002
 40
1.0
 40
1.0
 40
1.0
 40
1.0
 10
29.00100887389477
 20
33.6351707849946
 30
0.0
 10
27.91142823014432
 20
33.50810474298203
 30
0.0
 10
26.8887981063038
 20
33.20008625582793
 30
0.0
 10
25.43345030829916
 20
32.51695689995934
 30
0.0
 10
24.97270718512373
 20
32.25690200919532
 30
0.0
 10
24.09736865368432
 20
31.68631504336899
 30
0.0
 10
23.68148065965324
 20
31.37505614168422
 30
0.0
 10
22.88635412328385
 20
30.70644671580985
 30
0.0
 10
22.50554501938142
 20
30.34719384792983
 30
0.0
 10
21.78785963929491
 20
29.59868985090122
 30
0.0
 10
21.44990145865939
 20
29.20887698959342
 30
0.0
 10
20.4890325406331
 20
27.99742685544898
 30
0.0
 10
19.91851836752267
 20
27.13410174531795
 30
0.0
 10
19.4043872854513
 20
26.22096043094328
 30
0.0
  0
SPLINE
  5
274
330
1F
100
AcDbEntity
  8
1
  6
SLD-Gestrichelt
 62
   131
420
  8454143
370
     0
100
AcDbSpline
210
0.0
220
0.0
230
1.0
 70
     8
 71
     3
 72
     8
 73
     4
 74
     0
 42
0.00000001
 43
0.00000001
 12
1.0
 22
0.0
 32
0.0
 13
1.0
 23
0.0
 33
0.0
 40
0.0
 40
0.0
 40
0.0
 40
0.0
 40
1.0
 40
1.0
 40
1.0
 40
1.0
 10
30.50100887389476
 20
33.72238421832031
 30
0.0
 10
29.99930567198712
 20
33.72238421832031
 30
0.0
 10
29.49930749369061
 20
33.69328198008692
 30
0.0
 10
29.00100887389477
 20
33.63517078499461
 30
0.0
  0
LINE
  5
275
330
1F
100
AcDbEntity
  8
1
  6
SLD-Gestrichelt
 62
   131
420
  8454143
370
     0
100
AcDbLine
 10
30.5010088739
 20
37.1457845306
 30
0.0
 11
30.5010088739
 21
33.7223842183
 31
0.0
  0
SPLINE
  5
276
330
1F
100
AcDbEntity
  8
1
  6
SLD-Gestrichelt
 62
   131
420
  8454143
370
     0
100
AcDbSpline
210
0.0
220
0.0
230
1.0
 70
     8
 71
     3
 72
     9
 73
     5
 74
     0
 42
0.00000001
 43
0.00000001
 12
1.0
 22
0.0
 32
0.0
 13
1.0
 23
0.0
 33
0.0
 40
0.0
 40
0.0
 40
0.0
 40
0.0
 40
0.5
 40
1.0
 40
1.0
 40
1.0
 40
1.0
 10
30.50100887389477
 20
37.14578453055424
 30
0.0
 10
30.35783667602512
 20
37.14578453055423
 30
0.0
 10
30.07153137420978
 20
37.14165220299503
 30
0.0
 10
29.78530429285348
 20
37.1292517732269
 30
0.0
 10
29.64221036403946
 20
37.12097853423954
 30
0.0
  0
LINE
  5
277
330
1F
100
AcDbEntity
  8
1
  6
SLD-Gestrichelt
 62
   131
420
  8454143
370
     0
100
AcDbLine
 10
29.0010088739
 20
-30.9299905812
 30
0.0
 11
29.0010088739
 21
-22.1410173964
 31
0.0
  0
SPLINE
  5
278
330
1F
100
AcDbEntity
  8
1
  6
SLD-Gestrichelt
 62
   131
420
  8454143
370
     0
100
AcDbSpline
210
0.0
220
0.0
230
1.0
 70
     8
 71
     3
 72
    18
 73
    14
 74
     0
 42
0.00000001
 43
0.00000001
 12
1.0
 22
0.0
 32
0.0
 13
1.0
 23
0.0
 33
0.0
 40
0.0
 40
0.0
 40
0.0
 40
0.0
 40
0.2500000000000011
 40
0.2500000000000011
 40
0.3750000000000011
 40
0.3750000000000011
 40
0.5000000000000011
 40
0.5000000000000011
 40
0.6250000000000011
 40
0.6250000000000011
 40
0.7500000000000011
 40
0.7500000000000011
 40
1.0
 40
1.0
 40
1.0
 40
1.0
 10
29.00100887389477
 20
-30.92999058117706
 30
0.0
 10
27.91142823014432
 20
-30.8760850244576
 30
0.0
 10
26.88879810630381
 20
-30.8349146247547
 30
0.0
 10
25.43345030829916
 20
-30.76481722608152
 30
0.0
 10
24.97270718512373
 20
-30.74034217480547
 30
0.0
 10
24.09736865368432
 20
-30.6843334664841
 30
0.0
 10
23.68148065965324
 20
-30.65274230157451
 30
0.0
 10
22.88635412328385
 20
-30.5777498168375
 30
0.0
 10
22.50554501938142
 20
-30.53407722937211
 30
0.0
 10
21.78785963929491
 20
-30.43254981296097
 30
0.0
 10
21.44990145865939
 20
-30.37468497230901
 30
0.0
 10
20.4890325406331
 20
-30.17598008658561
 30
0.0
 10
19.91851836752266
 20
-30.00987053014153
 30
0.0
 10
19.4043872854513
 20
-29.80261486834131
 30
0.0
  0
SPLINE
  5
279
330
1F
100
AcDbEntity
  8
1
  6
SLD-Gestrichelt
 62
   131
420
  8454143
370
     0
100
AcDbSpline
210
0.0
220
0.0
230
1.0
 70
     8
 71
     3
 72
     8
 73
     4
 74
     0
 42
0.00000001
 43
0.00000001
 12
1.0
 22
0.0
 32
0.0
 13
1.0
 23
0.0
 33
0.0
 40
0.0
 40
0.0
 40
0.0
 40
0.0
 40
1.0
 40
1.0
 40
1.0
 40
1.0
 10
19.4043872854513
 20
-29.80261486834131
 30
0.0
 10
18.19553813451528
 20
-29.31530562069869
 30
0.0
 10
17.08735137897537
 20
-28.80273133256114
 30
0.0
 10
16.09763046233823
 20
-28.20065244292402
 30
0.0
  0
LINE
  5
27A
330
1F
100
AcDbEntity
  8
1
  6
SLD-Gestrichelt
 62
   131
420
  8454143
370
     0
100
AcDbLine
 10
32.2010088739
 20
-24.2195583903
 30
0.0
 11
33.7010088739
 21
-24.2195583903
 31
0.0
  0
SPLINE
  5
27B
330
1F
100
AcDbEntity
  8
1
  6
SLD-Gestrichelt
 62
   131
420
  8454143
370
     0
100
AcDbSpline
210
0.0
220
0.0
230
1.0
 70
     8
 71
     3
 72
    10
 73
     6
 74
     0
 42
0.00000001
 43
0.00000001
 12
1.0
 22
0.0
 32
0.0
 13
1.0
 23
0.0
 33
0.0
 40
0.0
 40
0.0
 40
0.0
 40
0.0
 40
0.5
 40
0.5
 40
1.0
 40
1.0
 40
1.0
 40
1.0
 10
33.70100887389471
 20
-24.21955839029712
 30
0.0
 10
34.52084994636906
 20
-24.7560822725617
 30
0.0
 10
35.38086465323651
 20
-25.28265716484967
 30
0.0
 10
37.15522685846783
 20
-26.3223514479216
 30
0.0
 10
38.070192497952
 20
-26.83563831400632
 30
0.0
 10
39.00100887389479
 20
-27.34239721560786
 30
0.0
  0
SPLINE
  5
27C
330
1F
100
AcDbEntity
  8
1
  6
SLD-Gestrichelt
 62
   131
420
  8454143
370
     0
100
AcDbSpline
210
0.0
220
0.0
230
1.0
 70
     8
 71
     3
 72
     9
 73
     5
 74
     0
 42
0.00000001
 43
0.00000001
 12
1.0
 22
0.0
 32
0.0
 13
1.0
 23
0.0
 33
0.0
 40
0.0
 40
0.0
 40
0.0
 40
0.0
 40
0.1397578948917922
 40
1.0
 40
1.0
 40
1.0
 40
1.0
 10
39.00100887389477
 20
-28.12030060672469
 30
0.0
 10
38.80110901205298
 20
-28.23133465605523
 30
0.0
 10
37.37077935520919
 20
-29.0258089103827
 30
0.0
 10
35.88748477561056
 20
-29.80286748397267
 30
0.0
 10
34.61149232396103
 20
-30.47132598711007
 30
0.0
  0
LINE
  5
27D
330
1F
100
AcDbEntity
  8
1
  6
SLD-Gestrichelt
 62
   131
420
  8454143
370
     0
100
AcDbLine
 10
29.2436439358
 20
-30.9359753822
 30
0.0
 11
29.0010088739
 21
-30.9299905812
 31
0.0
  0
ELLIPSE
  5
27E
330
1F
100
AcDbEntity
  8
1
  6
SLD-Gestrichelt
 62
   131
420
  8454143
370
     0
100
AcDbEllipse
 10
31.9010088739
 20
-29.5573224442
 30
0.0
 11
2.749999999999996
 21
0.0
 31
0.0
210
0.0
220
0.0
230
1.0
 40
0.4242325948
 41
2.580028378572664
 42
3.358566609390522
  0
ELLIPSE
  5
27F
330
1F
100
AcDbEntity
  8
1
  6
SLD-Gestrichelt
 62
   131
420
  8454143
370
     0
100
AcDbEllipse
 10
31.9010088739
 20
-29.5573224442
 30
0.0
 11
2.749999999999996
 21
0.0
 31
0.0
210
0.0
220
0.0
230
1.0
 40
0.4242325948
 41
6.066211351378934
 42
6.844749582196708
  0
LINE
  5
280
330
1F
100
AcDbEntity
  8
1
  6
SLD-Gestrichelt
 62
   131
420
  8454143
370
     0
100
AcDbLine
 10
39.0010088739
 20
30.0245504817
 30
0.0
 11
39.0010088739
 21
28.519264802
 31
0.0
  0
LINE
  5
281
330
1F
100
AcDbEntity
  8
1
  6
SLD-Gestrichelt
 62
   131
420
  8454143
370
     0
100
AcDbLine
 10
33.7010088739
 20
17.8173569903
 30
0.0
 11
34.2711053791
 21
18.6459998165
 31
0.0
  0
SPLINE
  5
282
330
1F
100
AcDbEntity
  8
1
  6
SLD-Gestrichelt
 62
   131
420
  8454143
370
     0
100
AcDbSpline
210
0.0
220
0.0
230
1.0
 70
     8
 71
     3
 72
     9
 73
     5
 74
     0
 42
0.00000001
 43
0.00000001
 12
1.0
 22
0.0
 32
0.0
 13
1.0
 23
0.0
 33
0.0
 40
0.0
 40
0.0
 40
0.0
 40
0.0
 40
0.389317873090853
 40
0.9999999999999999
 40
0.9999999999999999
 40
0.9999999999999999
 40
0.9999999999999999
 10
34.62857915733883
 20
19.16559269091665
 30
0.0
 10
35.16896668665265
 20
19.96521980013622
 30
0.0
 10
36.55700347269485
 20
22.01913811339323
 30
0.0
 10
38.07437636730186
 20
23.98064659965631
 30
0.0
 10
39.00100887389477
 20
25.17850477399779
 30
0.0
  0
LINE
  5
283
330
1F
100
AcDbEntity
  8
1
  6
SLD-Gestrichelt
 62
   131
420
  8454143
370
     0
100
AcDbLine
 10
33.7010088739
 20
24.6440416122
 30
0.0
 11
33.7010088739
 21
24.2186002363
 31
0.0
  0
SPLINE
  5
284
330
1F
100
AcDbEntity
  8
1
  6
SLD-Gestrichelt
 62
   131
420
  8454143
370
     0
100
AcDbSpline
210
0.0
220
0.0
230
1.0
 70
     8
 71
     3
 72
     8
 73
     4
 74
     0
 42
0.00000001
 43
0.00000001
 12
1.0
 22
0.0
 32
0.0
 13
1.0
 23
0.0
 33
0.0
 40
0.0
 40
0.0
 40
0.0
 40
0.0
 40
1.0
 40
1.0
 40
1.0
 40
1.0
 10
33.70100887389471
 20
24.64404161221744
 30
0.0
 10
35.46477442390725
 20
26.4404050255554
 30
0.0
 10
37.23195685495257
 20
28.23340548814191
 30
0.0
 10
39.00100887389477
 20
30.02455048171222
 30
0.0
  0
LINE
  5
285
330
1F
100
AcDbEntity
  8
1
  6
SLD-Gestrichelt
 62
   131
420
  8454143
370
     0
100
AcDbLine
 10
32.2010088739
 20
17.8173569903
 30
0.0
 11
33.7010088739
 21
17.8173569903
 31
0.0
  0
LINE
  5
286
330
1F
100
AcDbEntity
  8
1
  6
SLD-Gestrichelt
 62
   131
420
  8454143
370
     0
100
AcDbLine
 10
32.2010088739
 20
24.6440416122
 30
0.0
 11
33.7010088739
 21
24.6440416122
 31
0.0
  0
LINE
  5
287
330
1F
100
AcDbEntity
  8
1
  6
SLD-Gestrichelt
 62
   131
420
  8454143
370
     0
100
AcDbLine
 10
33.6810088739
 20
37.1457845306
 30
0.0
 11
30.5010088739
 21
37.1457845306
 31
0.0
  0
SPLINE
  5
288
330
1F
100
AcDbEntity
  8
1
  6
SLD-Gestrichelt
 62
   131
420
  8454143
370
     0
100
AcDbSpline
210
0.0
220
0.0
230
1.0
 70
     8
 71
     3
 72
     8
 73
     4
 74
     0
 42
0.00000001
 43
0.00000001
 12
1.0
 22
0.0
 32
0.0
 13
1.0
 23
0.0
 33
0.0
 40
0.0
 40
0.0
 40
0.0
 40
0.0
 40
1.0
 40
1.0
 40
1.0
 40
1.0
 10
39.00100887389477
 20
31.49181998168446
 30
0.0
 10
37.22927696344684
 20
33.37798406939761
 30
0.0
 10
35.45570168379774
 20
35.26241183382114
 30
0.0
 10
33.68100887389477
 20
37.14578453055424
 30
0.0
  0
LINE
  5
289
330
1F
100
AcDbEntity
  8
1
  6
SLD-Gestrichelt
 62
   131
420
  8454143
370
     0
100
AcDbLine
 10
39.0010088739
 20
30.0245504817
 30
0.0
 11
39.0010088739
 21
31.4918199817
 31
0.0
  0
LINE
  5
28A
330
1F
100
AcDbEntity
  8
1
  6
SLD-Gestrichelt
 62
   131
420
  8454143
370
     0
100
AcDbLine
 10
32.2010088739
 20
24.2186002363
 30
0.0
 11
32.2010088739
 21
24.6440416122
 31
0.0
  0
LINE
  5
28B
330
1F
100
AcDbEntity
  8
1
  6
SLD-Gestrichelt
 62
   131
420
  8454143
370
     0
100
AcDbLine
 10
33.6810088739
 20
37.1457845306
 30
0.0
 11
33.6810088739
 21
33.7223842183
 31
0.0
  0
LINE
  5
28C
330
1F
100
AcDbEntity
  8
1
  6
SLD-Gestrichelt
 62
   131
420
  8454143
370
     0
100
AcDbLine
 10
33.7010088739
 20
-16.4450203436
 30
0.0
 11
33.7010088739
 21
-17.8183151442
 31
0.0
  0
LINE
  5
28D
330
1F
100
AcDbEntity
  8
1
  6
SLD-Gestrichelt
 62
   131
420
  8454143
370
     0
100
AcDbLine
 10
33.7010088739
 20
-16.4450203436
 30
0.0
 11
36.0289148117
 21
-17.6266541686
 31
0.0
  0
LINE
  5
28E
330
1F
100
AcDbEntity
  8
1
  6
SLD-Gestrichelt
 62
   131
420
  8454143
370
     0
100
AcDbLine
 10
32.2010088739
 20
-16.4450203436
 30
0.0
 11
33.7010088739
 21
-16.4450203436
 31
0.0
  0
LINE
  5
28F
330
1F
100
AcDbEntity
  8
1
  6
SLD-Gestrichelt
 62
   131
420
  8454143
370
     0
100
AcDbLine
 10
19.4043872855
 20
-16.2718884273
 30
0.0
 11
19.4043872855
 21
-29.8026148683
 31
0.0
  0
LWPOLYLINE
  5
290
330
1F
100
AcDbEntity
  8
1
  6
SLD-Gestrichelt
 62
   131
420
  8454143
370
     0
100
AcDbPolyline
 90
       11
 70
   128
 43
0.0
 10
31.9010088739
 20
-20.697759999
 10
32.3657611298
 20
-20.6779818757
 10
32.8171433094
 20
-20.6192164865
 10
33.2421699694
 20
-20.5231544046
 10
33.6286138665
 20
-20.3925591612
 10
33.9653577133
 20
-20.2311877436
 10
34.2427140027
 20
-20.0436825139
 10
34.452703699
 20
-19.8354376559
 10
34.589285781
 20
-19.6124439952
 10
34.648531031
 20
-19.3811166534
 10
34.6332059741
 20
-19.1665558011
  0
LWPOLYLINE
  5
291
330
1F
100
AcDbEntity
  8
1
  6
SLD-Gestrichelt
 62
   131
420
  8454143
370
     0
100
AcDbPolyline
 90
       27
 70
   128
 43
0.0
 10
34.2890457382
 20
-18.6408912552
 10
34.1120009824
 20
-18.5051393816
 10
33.8038407636
 20
-18.3300703698
 10
33.4409395358
 20
-18.1835592313
 10
33.0337373066
 20
-18.0698208247
 10
32.5939485427
 20
-17.992127197
 10
32.1342251662
 20
-17.9527134522
 10
31.6677925816
 20
-17.9527134522
 10
31.2080692051
 20
-17.992127197
 10
30.7682804412
 20
-18.0698208247
 10
30.361078212
 20
-18.1835592313
 10
29.9981769842
 20
-18.3300703698
 10
29.6900167654
 20
-18.5051393816
 10
29.445462764
 20
-18.7037298499
 10
29.2715503534
 20
-18.9201286885
 10
29.1732826769
 20
-19.1481104968
 10
29.1534867168
 20
-19.3811166534
 10
29.2127319668
 20
-19.6124439952
 10
29.3493140488
 20
-19.8354376559
 10
29.5593037451
 20
-20.0436825139
 10
29.8366600344
 20
-20.2311877436
 10
30.1734038813
 20
-20.3925591612
 10
30.5598477784
 20
-20.5231544046
 10
30.9848744384
 20
-20.6192164865
 10
31.436256618
 20
-20.6779818757
 10
31.9010088739
 20
-20.697759999
 10
31.9010088739
 20
-20.697759999
  0
LINE
  5
292
330
1F
100
AcDbEntity
  8
1
  6
SLD-Gestrichelt
 62
   131
420
  8454143
370
     0
100
AcDbLine
 10
29.0010088739
 20
33.635170785
 30
0.0
 11
29.0010088739
 21
12.9178254146
 31
0.0
  0
LINE
  5
293
330
1F
100
AcDbEntity
  8
1
  6
SLD-Gestrichelt
 62
   131
420
  8454143
370
     0
100
AcDbLine
 10
33.6810088739
 20
33.7223842183
 30
0.0
 11
30.5010088739
 21
33.7223842183
 31
0.0
  0
SPLINE
  5
294
330
1F
100
AcDbEntity
  8
1
  6
SLD-Gestrichelt
 62
   131
420
  8454143
370
     0
100
AcDbSpline
210
0.0
220
0.0
230
1.0
 70
     8
 71
     3
 72
     9
 73
     5
 74
     0
 42
0.00000001
 43
0.00000001
 12
1.0
 22
0.0
 32
0.0
 13
1.0
 23
0.0
 33
0.0
 40
0.0
 40
0.0
 40
0.0
 40
0.0
 40
0.1601016925823406
 40
0.9999999999999999
 40
0.9999999999999999
 40
0.9999999999999999
 40
0.9999999999999999
 10
39.00100887389477
 20
27.0121766808063
 30
0.0
 10
38.76760042813105
 20
27.31762470887319
 30
0.0
 10
37.30972423707398
 20
29.22546230346823
 30
0.0
 10
35.79810795438821
 20
31.09161313112551
 30
0.0
 10
34.52850399709546
 20
32.65899005266093
 30
0.0
  0
LINE
  5
295
330
1F
100
AcDbEntity
  8
1
  6
SLD-Gestrichelt
 62
   131
420
  8454143
370
     0
100
AcDbLine
 10
34.5010861732
 20
32.6933925562
 30
0.0
 11
33.6810088739
 21
33.7223842183
 31
0.0
  0
SPLINE
  5
296
330
1F
100
AcDbEntity
  8
1
  6
SLD-Gestrichelt
 62
   131
420
  8454143
370
     0
100
AcDbSpline
210
0.0
220
0.0
230
1.0
 70
     8
 71
     3
 72
     8
 73
     4
 74
     0
 42
0.00000001
 43
0.00000001
 12
1.0
 22
0.0
 32
0.0
 13
1.0
 23
0.0
 33
0.0
 40
0.0000002921195444
 40
0.0000002921195444
 40
0.0000002921195444
 40
0.0000002921195444
 40
0.0077636493263124
 40
0.0077636493263124
 40
0.0077636493263124
 40
0.0077636493263124
 10
39.00100887389476
 20
-19.86890952831791
 30
0.0
 10
37.22927880418757
 20
-20.81199059235948
 30
0.0
 10
35.45570270793971
 20
-21.75420491095674
 30
0.0
 10
33.68100887389477
 20
-22.69589180275286
 30
0.0
  0
SPLINE
  5
297
330
1F
100
AcDbEntity
  8
1
  6
SLD-Gestrichelt
 62
   131
420
  8454143
370
     0
100
AcDbSpline
210
0.0
220
0.0
230
1.0
 70
     8
 71
     3
 72
     8
 73
     4
 74
     0
 42
0.00000001
 43
0.00000001
 12
1.0
 22
0.0
 32
0.0
 13
1.0
 23
0.0
 33
0.0
 40
0.0
 40
0.0
 40
0.0
 40
0.0
 40
1.0
 40
1.0
 40
1.0
 40
1.0
 10
30.50100887389477
 20
-22.69589180275286
 30
0.0
 10
30.21333349738265
 20
-22.69589180275286
 30
0.0
 10
29.9270787698262
 20
-22.69172390031395
 30
0.0
 10
29.64221036403946
 20
-22.68348880459551
 30
0.0
  0
ARC
  5
298
330
1F
100
AcDbEntity
  8
1
  6
SLD-Gestrichelt
 62
   131
420
  8454143
370
     0
100
AcDbCircle
 10
31.0971138415
 20
-15.5975299679
 30
0.0
 40
0.3248346412400233
100
AcDbArc
 50
88.8566664699
 51
114.5451725464
  0
LINE
  5
299
330
1F
100
AcDbEntity
  8
1
  6
SLD-Gestrichelt
 62
   131
420
  8454143
370
     0
100
AcDbLine
 10
31.1035954653
 20
-15.272759999
 30
0.0
 11
32.2010088739
 21
-15.272759999
 31
0.0
  0
LINE
  5
29A
330
1F
100
AcDbEntity
  8
1
  6
SLD-Gestrichelt
 62
   131
420
  8454143
370
     0
100
AcDbLine
 10
30.9621741091
 20
-10.7235635897
 30
0.0
 11
30.9621741091
 21
-15.3020493209
 31
0.0
  0
LINE
  5
29B
330
1F
100
AcDbEntity
  8
1
  6
SLD-Gestrichelt
 62
   131
420
  8454143
370
     0
100
AcDbLine
 10
23.8595875177
 20
-18.8533426166
 30
0.0
 11
30.9621741091
 21
-15.3020493209
 31
0.0
  0
LINE
  5
29C
330
1F
100
AcDbEntity
  8
1
  6
SLD-Gestrichelt
 62
   131
420
  8454143
370
     0
100
AcDbLine
 10
29.0010088739
 20
12.9178254146
 30
0.0
 11
29.0010088739
 21
11.5489159881
 31
0.0
  0
LINE
  5
29D
330
1F
100
AcDbEntity
  8
1
  6
SLD-Gestrichelt
 62
   131
420
  8454143
370
     0
100
AcDbLine
 10
29.0010088739
 20
11.749520923
 30
0.0
 11
29.8207527528
 21
11.749520923
 31
0.0
  0
ELLIPSE
  5
29E
330
1F
100
AcDbEntity
  8
1
  6
SLD-Gestrichelt
 62
   131
420
  8454143
370
     0
100
AcDbEllipse
 10
29.8207527528
 20
13.0485590287
 30
0.0
 11
1.299038105676665
 21
-1.299038105676654
 31
0.0
210
0.0
220
0.0
230
1.0
 40
0.5773502692
 41
5.235987755983001
 42
6.100760090317905
  0
SPLINE
  5
29F
330
1F
100
AcDbEntity
  8
1
  6
SLD-Gestrichelt
 62
   131
420
  8454143
370
     0
100
AcDbSpline
210
0.0
220
0.0
230
1.0
 70
     8
 71
     3
 72
    10
 73
     6
 74
     0
 42
0.00000001
 43
0.00000001
 12
1.0
 22
0.0
 32
0.0
 13
1.0
 23
0.0
 33
0.0
 40
0.0
 40
0.0
 40
0.0
 40
0.0
 40
0.5
 40
0.5
 40
1.0
 40
1.0
 40
1.0
 40
1.0
 10
30.9621741090628
 20
11.63501505410968
 30
0.0
 10
30.97808886972663
 20
11.64322230067707
 30
0.0
 10
30.99761526064642
 20
11.65144422936411
 30
0.0
 10
31.04525348872097
 20
11.66452226071688
 30
0.0
 10
31.07381524467176
 20
11.66913616529617
 30
0.0
 10
31.10359546530024
 20
11.66913616529617
 30
0.0
  0
LINE
  5
2A0
330
1F
100
AcDbEntity
  8
1
  6
SLD-Gestrichelt
 62
   131
420
  8454143
370
     0
100
AcDbLine
 10
31.1035954653
 20
11.6691361653
 30
0.0
 11
32.2010088739
 21
11.6691361653
 31
0.0
  0
LINE
  5
2A1
330
1F
100
AcDbEntity
  8
1
  6
SLD-Gestrichelt
 62
   131
420
  8454143
370
     0
100
AcDbLine
 10
29.0010088739
 20
12.9178254146
 30
0.0
 11
32.2010088739
 21
12.9178254146
 31
0.0
  0
ARC
  5
2A2
330
1F
100
AcDbEntity
  8
1
  6
SLD-Gestrichelt
 62
   131
420
  8454143
370
     0
100
AcDbCircle
 10
28.5745155345
 20
51.7597318752
 30
0.0
 40
40.01248401445856
100
AcDbArc
 50
250.5628462695
 51
270.6107276687
  0
ARC
  5
2A3
330
1F
100
AcDbEntity
  8
1
  6
SLD-Gestrichelt
 62
   131
420
  8454143
370
     0
100
AcDbCircle
 10
28.5848744353
 20
55.4398107628
 30
0.0
 40
42.5240215151798
100
AcDbArc
 50
250.306786352
 51
270.5606978539
  0
LINE
  5
2A4
330
1F
100
AcDbEntity
  8
1
  6
SLD-Gestrichelt
 62
   131
420
  8454143
370
     0
100
AcDbLine
 10
30.9621741091
 20
11.6350150541
 30
0.0
 11
30.9621741091
 21
7.0565293229
 31
0.0
  0
LINE
  5
2A5
330
1F
100
AcDbEntity
  8
1
  6
SLD-Gestrichelt
 62
   131
420
  8454143
370
     0
100
AcDbLine
 10
29.0010088739
 20
-9.2227129049
 30
0.0
 11
29.0010088739
 21
-11.750479077
 31
0.0
  0
ELLIPSE
  5
2A6
330
1F
100
AcDbEntity
  8
1
  6
SLD-Gestrichelt
 62
   131
420
  8454143
370
     0
100
AcDbEllipse
 10
29.8207527528
 20
-10.4514409713
 30
0.0
 11
1.299038105676672
 21
1.299038105676662
 31
0.0
210
0.0
220
0.0
230
1.0
 40
0.5773502692
 41
4.188790204786413
 42
5.053562539121302
  0
LINE
  5
2A7
330
1F
100
AcDbEntity
  8
1
  6
SLD-Gestrichelt
 62
   131
420
  8454143
370
     0
100
AcDbLine
 10
31.1035954653
 20
-10.6308638347
 30
0.0
 11
32.2010088739
 21
-10.6308638347
 31
0.0
  0
SPLINE
  5
2A8
330
1F
100
AcDbEntity
  8
1
  6
SLD-Gestrichelt
 62
   131
420
  8454143
370
     0
100
AcDbSpline
210
0.0
220
0.0
230
1.0
 70
     8
 71
     3
 72
    10
 73
     6
 74
     0
 42
0.00000001
 43
0.00000001
 12
1.0
 22
0.0
 32
0.0
 13
1.0
 23
0.0
 33
0.0
 40
0.0
 40
0.0
 40
0.0
 40
0.0
 40
0.5
 40
0.5
 40
1.0
 40
1.0
 40
1.0
 40
1.0
 10
30.9621741090628
 20
-10.72356358965256
 30
0.0
 10
30.97808886972662
 20
-10.69944158242138
 30
0.0
 10
30.99761526064642
 20
-10.67694361517786
 30
0.0
 10
31.04525348872097
 20
-10.64240068355604
 30
0.0
 10
31.07381524467176
 20
-10.63086383470388
 30
0.0
 10
31.10359546530024
 20
-10.63086383470388
 30
0.0
  0
ARC
  5
2A9
330
1F
100
AcDbEntity
  8
1
  6
SLD-Gestrichelt
 62
   131
420
  8454143
370
     0
100
AcDbCircle
 10
28.5848744353
 20
-51.7446982531
 30
0.0
 40
42.52402151517835
100
AcDbArc
 50
89.4393021461
 51
109.693213648
  0
LINE
  5
2AA
330
1F
100
AcDbEntity
  8
1
  6
SLD-Gestrichelt
 62
   131
420
  8454143
370
     0
100
AcDbLine
 10
29.0010088739
 20
2.7056592808
 30
0.0
 11
29.0010088739
 21
-9.2227129049
 31
0.0
  0
LINE
  5
2AB
330
1F
100
AcDbEntity
  8
1
  6
SLD-Gestrichelt
 62
   131
420
  8454143
370
     0
100
AcDbLine
 10
29.0010088739
 20
-9.2227129049
 30
0.0
 11
32.2010088739
 21
-9.2227129049
 31
0.0
  0
LINE
  5
2AC
330
1F
100
AcDbEntity
  8
1
  6
SLD-Gestrichelt
 62
   131
420
  8454143
370
     0
100
AcDbLine
 10
33.6810088739
 20
-22.6958918028
 30
0.0
 11
30.5010088739
 21
-22.6958918028
 31
0.0
  0
LINE
  5
2AD
330
1F
100
AcDbEntity
  8
1
  6
SLD-Gestrichelt
 62
   131
420
  8454143
370
     0
100
AcDbLine
 10
33.6810088739
 20
-22.6958918028
 30
0.0
 11
33.6810088739
 21
-30.9669893623
 31
0.0
  0
LINE
  5
2AE
330
1F
100
AcDbEntity
  8
1
  6
SLD-Gestrichelt
 62
   131
420
  8454143
370
     0
100
AcDbLine
 10
30.5010088739
 20
-22.6958918028
 30
0.0
 11
30.5010088739
 21
-30.9669893623
 31
0.0
  0
ARC
  5
2AF
330
1F
100
AcDbEntity
  8
1
  6
SLD-Gestrichelt
 62
   131
420
  8454143
370
     0
100
AcDbCircle
 10
23.8886238894
 20
10.6914965444
 30
0.0
 40
0.0885688248702984
100
AcDbArc
 50
188.4162473377
 51
250.8622971378
  0
ARC
  5
2B0
330
1F
100
AcDbEntity
  8
1
  6
SLD-Gestrichelt
 62
   131
420
  8454143
370
     0
100
AcDbCircle
 10
23.8886238894
 20
11.4629834577
 30
0.0
 40
0.0885688248703111
100
AcDbArc
 50
109.1377028622
 51
171.5837526623
  0
LINE
  5
2B1
330
1F
100
AcDbEntity
  8
1
  6
SLD-Gestrichelt
 62
   131
420
  8454143
370
     0
100
AcDbLine
 10
29.642210364
 20
14.4379688066
 30
0.0
 11
23.8595875177
 21
11.5466573834
 31
0.0
  0
SPLINE
  5
2B2
330
1F
100
AcDbEntity
  8
1
  6
SLD-Gestrichelt
 62
   131
420
  8454143
370
     0
100
AcDbSpline
210
0.0
220
0.0
230
1.0
 70
     8
 71
     3
 72
     8
 73
     4
 74
     0
 42
0.00000001
 43
0.00000001
 12
1.0
 22
0.0
 32
0.0
 13
1.0
 23
0.0
 33
0.0
 40
0.0
 40
0.0
 40
0.0
 40
0.0
 40
1.0
 40
1.0
 40
1.0
 40
1.0
 10
30.50100887389477
 20
14.45037180477572
 30
0.0
 10
30.21333349738264
 20
14.45037180477572
 30
0.0
 10
29.9270787698262
 20
14.4462039023368
 30
0.0
 10
29.64221036403946
 20
14.43796880661836
 30
0.0
  0
LINE
  5
2B3
330
1F
100
AcDbEntity
  8
1
  6
SLD-Gestrichelt
 62
   131
420
  8454143
370
     0
100
AcDbLine
 10
33.6810088739
 20
14.4503718048
 30
0.0
 11
30.5010088739
 21
14.4503718048
 31
0.0
  0
LINE
  5
2B4
330
1F
100
AcDbEntity
  8
1
  6
SLD-Gestrichelt
 62
   131
420
  8454143
370
     0
100
AcDbLine
 10
38.9697802608
 20
11.6399840295
 30
0.0
 11
33.6810088739
 21
14.4503718048
 31
0.0
  0
LINE
  5
2B5
330
1F
100
AcDbEntity
  8
1
  6
SLD-Gestrichelt
 62
   131
420
  8454143
370
     0
100
AcDbLine
 10
32.2010088739
 20
8.1995003456
 30
0.0
 11
33.322043746
 21
8.1995003456
 31
0.0
  0
LWPOLYLINE
  5
2B6
330
1F
100
AcDbEntity
  8
1
  6
SLD-Gestrichelt
 62
   131
420
  8454143
370
     0
100
AcDbPolyline
 90
       38
 70
   128
 43
0.0
 10
31.9010088739
 20
12.452240001
 10
32.3657611298
 20
12.4324618777
 10
32.8171433094
 20
12.3736964885
 10
33.2421699694
 20
12.2776344066
 10
33.6286138665
 20
12.1470391632
 10
33.9653577133
 20
11.9856677457
 10
34.2427140027
 20
11.7981625159
 10
34.452703699
 20
11.589917658
 10
34.589285781
 20
11.3669239973
 10
34.648531031
 20
11.1355966554
 10
34.6287350709
 20
10.9025904989
 10
34.5304673944
 20
10.6746086905
 10
34.3565549838
 20
10.4582098519
 10
34.1120009824
 20
10.2596193836
 10
33.8038407636
 20
10.0845503718
 10
33.4409395358
 20
9.9380392333
 10
33.0337373066
 20
9.8243008267
 10
32.5939485427
 20
9.746607199
 10
32.1342251662
 20
9.7071934543
 10
31.6677925816
 20
9.7071934543
 10
31.2080692051
 20
9.746607199
 10
30.7682804412
 20
9.8243008267
 10
30.361078212
 20
9.9380392333
 10
29.9981769842
 20
10.0845503718
 10
29.6900167654
 20
10.2596193836
 10
29.445462764
 20
10.4582098519
 10
29.2715503534
 20
10.6746086905
 10
29.1732826769
 20
10.9025904989
 10
29.1534867168
 20
11.1355966554
 10
29.2127319668
 20
11.3669239973
 10
29.3493140488
 20
11.589917658
 10
29.5593037451
 20
11.7981625159
 10
29.8366600344
 20
11.9856677457
 10
30.1734038813
 20
12.1470391632
 10
30.5598477784
 20
12.2776344066
 10
30.9848744384
 20
12.3736964885
 10
31.436256618
 20
12.4324618777
 10
31.9010088739
 20
12.452240001
  0
LINE
  5
2B7
330
1F
100
AcDbEntity
  8
1
  6
SLD-Gestrichelt
 62
   131
420
  8454143
370
     0
100
AcDbLine
 10
23.8595875177
 20
10.6078226186
 30
0.0
 11
30.9621741091
 21
7.0565293229
 31
0.0
  0
LINE
  5
2B8
330
1F
100
AcDbEntity
  8
1
  6
SLD-Gestrichelt
 62
   131
420
  8454143
370
     0
100
AcDbLine
 10
31.1035954653
 20
7.027240001
 30
0.0
 11
32.2010088739
 21
7.027240001
 31
0.0
  0
ARC
  5
2B9
330
1F
100
AcDbEntity
  8
1
  6
SLD-Gestrichelt
 62
   131
420
  8454143
370
     0
100
AcDbCircle
 10
31.0971138415
 20
7.3520099699
 30
0.0
 40
0.3248346412399924
100
AcDbArc
 50
245.4548274536
 51
271.1433335301
  0
LINE
  5
2BA
330
1F
100
AcDbEntity
  8
1
  6
SLD-Gestrichelt
 62
   131
420
  8454143
370
     0
100
AcDbLine
 10
23.8010088739
 20
-15.5991857813
 30
0.0
 11
23.8010088739
 21
-18.9240532947
 31
0.0
  0
LINE
  5
2BB
330
1F
100
AcDbEntity
  8
1
  6
SLD-Gestrichelt
 62
   131
420
  8454143
370
     0
100
AcDbLine
 10
23.8595875177
 20
-14.7310616946
 30
0.0
 11
23.8595875177
 21
-18.8533426166
 31
0.0
  0
ARC
  5
2BC
330
1F
100
AcDbEntity
  8
1
  6
SLD-Gestrichelt
 62
   131
420
  8454143
370
     0
100
AcDbCircle
 10
23.8886238894
 20
-18.9370165423
 30
0.0
 40
0.0885688248703031
100
AcDbArc
 50
109.1377028622
 51
171.5837526623
  0
LINE
  5
2BD
330
1F
100
AcDbEntity
  8
1
  6
SLD-Gestrichelt
 62
   131
420
  8454143
370
     0
100
AcDbLine
 10
23.8010088739
 20
-19.7214667033
 30
0.0
 11
23.8010088739
 21
-18.9240532947
 31
0.0
  0
LINE
  5
2BE
330
1F
100
AcDbEntity
  8
1
  6
SLD-Gestrichelt
 62
   131
420
  8454143
370
     0
100
AcDbLine
 10
32.2010088739
 20
-6.401722323
 30
0.0
 11
33.7010088739
 21
-6.401722323
 31
0.0
  0
SPLINE
  5
2BF
330
1F
100
AcDbEntity
  8
1
  6
SLD-Gestrichelt
 62
   131
420
  8454143
370
     0
100
AcDbSpline
210
0.0
220
0.0
230
1.0
 70
     8
 71
     3
 72
    10
 73
     6
 74
     0
 42
0.00000001
 43
0.00000001
 12
1.0
 22
0.0
 32
0.0
 13
1.0
 23
0.0
 33
0.0
 40
0.0
 40
0.0
 40
0.0
 40
0.0
 40
0.5000000000000001
 40
0.5000000000000001
 40
1.0
 40
1.0
 40
1.0
 40
1.0
 10
33.70100887389471
 20
-6.401722323039007
 30
0.0
 10
34.52529232418954
 20
-5.669607822288049
 30
0.0
 10
35.38706188988502
 20
-4.953827063321022
 30
0.0
 10
37.16029548113433
 20
-3.543918801979235
 30
0.0
 10
38.07196052195958
 20
-2.849878887542105
 30
0.0
 10
39.00100887389478
 20
-2.163413364635942
 30
0.0
  0
LINE
  5
2C0
330
1F
100
AcDbEntity
  8
1
  6
SLD-Gestrichelt
 62
   131
420
  8454143
370
     0
100
AcDbLine
 10
23.8595875177
 20
-15.6698964594
 30
0.0
 11
23.8595875177
 21
-19.7921773814
 31
0.0
  0
ARC
  5
2C1
330
1F
100
AcDbEntity
  8
1
  6
SLD-Gestrichelt
 62
   131
420
  8454143
370
     0
100
AcDbCircle
 10
23.8886238894
 20
-19.7085034556
 30
0.0
 40
0.0885688248702837
100
AcDbArc
 50
188.4162473377
 51
250.8622971378
  0
LINE
  5
2C2
330
1F
100
AcDbEntity
  8
1
  6
SLD-Gestrichelt
 62
   131
420
  8454143
370
     0
100
AcDbLine
 10
29.642210364
 20
-22.6834888046
 30
0.0
 11
23.8595875177
 21
-19.7921773814
 31
0.0
  0
SPLINE
  5
2C3
330
1F
100
AcDbEntity
  8
1
  6
SLD-Gestrichelt
 62
   131
420
  8454143
370
     0
100
AcDbSpline
210
0.0
220
0.0
230
1.0
 70
     8
 71
     3
 72
     8
 73
     4
 74
     0
 42
0.00000001
 43
0.00000001
 12
1.0
 22
0.0
 32
0.0
 13
1.0
 23
0.0
 33
0.0
 40
0.0
 40
0.0
 40
0.0
 40
0.0
 40
1.0
 40
1.0
 40
1.0
 40
1.0
 10
29.64221036403946
 20
-22.68348880459551
 30
0.0
 10
29.85584269399079
 20
-21.43089323658268
 30
0.0
 10
29.96103037606813
 20
-20.1092449678745
 30
0.0
 10
29.96103037606813
 20
-18.72061788859594
 30
0.0
  0
SPLINE
  5
2C4
330
1F
100
AcDbEntity
  8
1
  6
SLD-Gestrichelt
 62
   131
420
  8454143
370
     0
100
AcDbSpline
210
0.0
220
0.0
230
1.0
 70
     8
 71
     3
 72
     8
 73
     4
 74
     0
 42
0.00000001
 43
0.00000001
 12
1.0
 22
0.0
 32
0.0
 13
1.0
 23
0.0
 33
0.0
 40
0.0
 40
0.0
 40
0.0
 40
0.0
 40
1.0
 40
1.0
 40
1.0
 40
1.0
 10
19.4043872854513
 20
-3.58117536042392
 30
0.0
 10
18.19553813451528
 20
-5.240886864997152
 30
0.0
 10
17.08735137897537
 20
-6.925661336980331
 30
0.0
 10
16.09763046233823
 20
-8.597701541590462
 30
0.0
  0
LINE
  5
2C5
330
1F
100
AcDbEntity
  8
1
  6
SLD-Gestrichelt
 62
   131
420
  8454143
370
     0
100
AcDbLine
 10
23.8010088739
 20
14.8008142187
 30
0.0
 11
23.8010088739
 21
10.6785332967
 31
0.0
  0
LINE
  5
2C6
330
1F
100
AcDbEntity
  8
1
  6
SLD-Gestrichelt
 62
   131
420
  8454143
370
     0
100
AcDbLine
 10
23.8595875177
 20
14.7301035406
 30
0.0
 11
23.8595875177
 21
10.6078226186
 31
0.0
  0
ELLIPSE
  5
2C7
330
1F
100
AcDbEntity
  8
1
  6
SLD-Gestrichelt
 62
   131
420
  8454143
370
     0
100
AcDbEllipse
 10
31.9010088739
 20
0.8426775558
 30
0.0
 11
2.749999999999996
 21
0.0
 31
0.0
210
0.0
220
0.0
230
1.0
 40
0.5757674052
 41
0.0
 42
6.283185307179586
  0
LINE
  5
2C8
330
1F
100
AcDbEntity
  8
1
  6
SLD-Gestrichelt
 62
   131
420
  8454143
370
     0
100
AcDbLine
 10
23.8595875177
 20
15.6689383054
 30
0.0
 11
23.8595875177
 21
11.5466573834
 31
0.0
  0
SPLINE
  5
2C9
330
1F
100
AcDbEntity
  8
1
  6
SLD-Gestrichelt
 62
   131
420
  8454143
370
     0
100
AcDbSpline
210
0.0
220
0.0
230
1.0
 70
     8
 71
     3
 72
     8
 73
     4
 74
     0
 42
0.00000001
 43
0.00000001
 12
1.0
 22
0.0
 32
0.0
 13
1.0
 23
0.0
 33
0.0
 40
0.0
 40
0.0
 40
0.0
 40
0.0
 40
1.0
 40
1.0
 40
1.0
 40
1.0
 10
29.64221036403946
 20
14.43796880661836
 30
0.0
 10
29.85489313944288
 20
15.89767960406173
 30
0.0
 10
29.96103037606812
 20
17.32486836993034
 30
0.0
 10
29.96103037606812
 20
18.71965973464664
 30
0.0
  0
LINE
  5
2CA
330
1F
100
AcDbEntity
  8
1
  6
SLD-Gestrichelt
 62
   131
420
  8454143
370
     0
100
AcDbLine
 10
19.4043872855
 20
16.2709302733
 30
0.0
 11
19.4043872855
 21
-3.5811753604
 31
0.0
  0
SPLINE
  5
2CB
330
1F
100
AcDbEntity
  8
1
  6
SLD-Gestrichelt
 62
   131
420
  8454143
370
     0
100
AcDbSpline
210
0.0
220
0.0
230
1.0
 70
     8
 71
     3
 72
     8
 73
     4
 74
     0
 42
0.00000001
 43
0.00000001
 12
1.0
 22
0.0
 32
0.0
 13
1.0
 23
0.0
 33
0.0
 40
0.0
 40
0.0
 40
0.0
 40
0.0
 40
1.0
 40
1.0
 40
1.0
 40
1.0
 10
30.50100887389476
 20
2.755873932992305
 30
0.0
 10
29.99930567198712
 20
2.755873932992305
 30
0.0
 10
29.4993074936906
 20
2.739117812800406
 30
0.0
 10
29.00100887389477
 20
2.705659280791564
 30
0.0
  0
SPLINE
  5
2CC
330
1F
100
AcDbEntity
  8
1
  6
SLD-Gestrichelt
 62
   131
420
  8454143
370
     0
100
AcDbSpline
210
0.0
220
0.0
230
1.0
 70
     8
 71
     3
 72
    18
 73
    14
 74
     0
 42
0.00000001
 43
0.00000001
 12
1.0
 22
0.0
 32
0.0
 13
1.0
 23
0.0
 33
0.0
 40
0.0
 40
0.0
 40
0.0
 40
0.0
 40
0.2499999999999993
 40
0.2499999999999993
 40
0.3749999999999994
 40
0.3749999999999994
 40
0.4999999999999997
 40
0.4999999999999997
 40
0.6249999999999999
 40
0.6249999999999999
 40
0.75
 40
0.75
 40
1.0
 40
1.0
 40
1.0
 40
1.0
 10
29.00100887389477
 20
2.70565928079158
 30
0.0
 10
27.91142823014432
 20
2.632498795498492
 30
0.0
 10
26.88879810630381
 20
2.365650708047268
 30
0.0
 10
25.43345030829916
 20
1.75261875085187
 30
0.0
 10
24.97270718512373
 20
1.517038911363908
 30
0.0
 10
24.09736865368432
 20
1.002460653858939
 30
0.0
 10
23.68148065965325
 20
0.722792917083777
 30
0.0
 10
22.88635412328385
 20
0.1291759759464275
 30
0.0
 10
22.50554501938143
 20
-0.1864043044682005
 30
0.0
 10
21.78785963929492
 20
-0.8333808850856589
 30
0.0
 10
21.44990145865939
 20
-1.165328905741507
 30
0.0
 10
20.48903254063309
 20
-2.178074154162535
 30
0.0
 10
19.91851836752267
 20
-2.875289707849485
 30
0.0
 10
19.4043872854513
 20
-3.581175360423919
 30
0.0
  0
SPLINE
  5
2CD
330
1F
100
AcDbEntity
  8
1
  6
SLD-Gestrichelt
 62
   131
420
  8454143
370
     0
100
AcDbSpline
210
0.0
220
0.0
230
1.0
 70
     8
 71
     3
 72
     8
 73
     4
 74
     0
 42
0.00000001
 43
0.00000001
 12
1.0
 22
0.0
 32
0.0
 13
1.0
 23
0.0
 33
0.0
 40
0.0
 40
0.0
 40
0.0
 40
0.0
 40
1.0
 40
1.0
 40
1.0
 40
1.0
 10
39.00100887389478
 20
-1.107644848944285
 30
0.0
 10
37.27180162520514
 20
0.1994920303943612
 30
0.0
 10
35.48963099995479
 20
1.484865194137075
 30
0.0
 10
33.68100887389477
 20
2.755873932992293
 30
0.0
  0
LINE
  5
2CE
330
1F
100
AcDbEntity
  8
1
  6
SLD-Gestrichelt
 62
   131
420
  8454143
370
     0
100
AcDbLine
 10
33.6810088739
 20
14.4503718048
 30
0.0
 11
33.6810088739
 21
2.755873933
 31
0.0
  0
LINE
  5
2CF
330
1F
100
AcDbEntity
  8
1
  6
SLD-Gestrichelt
 62
   131
420
  8454143
370
     0
100
AcDbLine
 10
30.5010088739
 20
14.4503718048
 30
0.0
 11
30.5010088739
 21
2.755873933
 31
0.0
  0
LINE
  5
2D0
330
1F
100
AcDbEntity
  8
1
  6
SLD-Gestrichelt
 62
   131
420
  8454143
370
     0
100
AcDbLine
 10
33.6810088739
 20
2.755873933
 30
0.0
 11
30.5010088739
 21
2.755873933
 31
0.0
  0
LINE
  5
2D1
330
1F
100
AcDbEntity
  8
1
  6
SLD-Gestrichelt
 62
   131
420
  8454143
370
     0
100
AcDbLine
 10
29.1510088739
 20
-16.886140082
 30
0.0
 11
29.1510088739
 21
-19.0629523779
 31
0.0
  0
LINE
  5
2D2
330
1F
100
AcDbEntity
  8
1
  6
SLD-Gestrichelt
 62
   131
420
  8454143
370
     0
100
AcDbLine
 10
34.6510088739
 20
-19.0629523779
 30
0.0
 11
34.6510088739
 21
-16.886140082
 31
0.0
  0
SPLINE
  5
2D3
330
1F
100
AcDbEntity
  8
1
  6
SLD-Gestrichelt
 62
   131
420
  8454143
370
     0
100
AcDbSpline
210
0.0
220
0.0
230
1.0
 70
     8
 71
     3
 72
    14
 73
    10
 74
     0
 42
0.00000001
 43
0.00000001
 12
1.0
 22
0.0
 32
0.0
 13
1.0
 23
0.0
 33
0.0
 40
0.0
 40
0.0
 40
0.0
 40
0.0
 40
0.0791049674116886
 40
0.2829778939718543
 40
0.4664310238958587
 40
0.6394972716954694
 40
0.809657224101601
 40
0.9816439041869727
 40
1.0
 40
1.0
 40
1.0
 40
1.0
 10
34.63112884370022
 20
-16.96390174959851
 30
0.0
 10
34.64116087115922
 20
-16.94077922346882
 30
0.0
 10
34.67704789691121
 20
-16.85806426938214
 30
0.0
 10
34.73632563957248
 20
-16.78177419366229
 30
0.0
 10
34.77325339411441
 20
-16.74028182650845
 30
0.0
 10
34.76146755525046
 20
-16.75494985496167
 30
0.0
 10
34.68732696573008
 20
-16.80799853298678
 30
0.0
 10
34.608658317129
 20
-16.8605597342751
 30
0.0
 10
34.53927134947099
 20
-16.89393769252406
 30
0.0
 10
34.53257987499557
 20
-16.89715656435552
 30
0.0
  0
SPLINE
  5
2D4
330
1F
100
AcDbEntity
  8
1
  6
SLD-Gestrichelt
 62
   131
420
  8454143
370
     0
100
AcDbSpline
210
0.0
220
0.0
230
1.0
 70
     8
 71
     3
 72
    13
 73
     9
 74
     0
 42
0.00000001
 43
0.00000001
 12
1.0
 22
0.0
 32
0.0
 13
1.0
 23
0.0
 33
0.0
 40
0.0
 40
0.0
 40
0.0
 40
0.0
 40
0.082166771205229
 40
0.2634023836473101
 40
0.4430476450056466
 40
0.6252223039640238
 40
0.8140711788171571
 40
1.0
 40
1.0
 40
1.0
 40
1.0
 10
29.28242586673849
 20
-16.90235190544333
 30
0.0
 10
29.25395200186615
 20
-16.88807185166404
 30
0.0
 10
29.16267320669125
 20
-16.84229421979527
 30
0.0
 10
29.07805759483131
 20
-16.78318383679051
 30
0.0
 10
29.02756745450029
 20
-16.74211130681923
 30
0.0
 10
29.0402741878628
 20
-16.75183586152666
 30
0.0
 10
29.09618541400202
 20
-16.81663474110969
 30
0.0
 10
29.14606427610344
 20
-16.91064463927732
 30
0.0
 10
29.17080939335707
 20
-16.95728335265514
 30
0.0
  0
LINE
  5
2D5
330
1F
100
AcDbEntity
  8
1
  6
SLD-Gestrichelt
 62
   131
420
  8454143
370
     0
100
AcDbLine
 10
28.1822665008
 20
-15.3907561401
 30
0.0
 11
28.2699719498
 21
-15.8192812132
 31
0.0
  0
LINE
  5
2D6
330
1F
100
AcDbEntity
  8
1
  6
SLD-Gestrichelt
 62
   131
420
  8454143
370
     0
100
AcDbLine
 10
35.532045798
 20
-15.8192812132
 30
0.0
 11
35.619751247
 21
-15.3907561401
 31
0.0
  0
SPLINE
  5
2D7
330
1F
100
AcDbEntity
  8
1
  6
SLD-Gestrichelt
 62
   131
420
  8454143
370
     0
100
AcDbSpline
210
0.0
220
0.0
230
1.0
 70
     8
 71
     3
 72
    10
 73
     6
 74
     0
 42
0.00000001
 43
0.00000001
 12
1.0
 22
0.0
 32
0.0
 13
1.0
 23
0.0
 33
0.0
 40
0.0
 40
0.0
 40
0.0
 40
0.0
 40
0.0074532490977515
 40
0.6087904704273278
 40
1.0
 40
1.0
 40
1.0
 40
1.0
 10
29.17053406199346
 20
-16.95441460819633
 30
0.0
 10
29.17029736048858
 20
-16.95404291726652
 30
0.0
 10
29.15096329307498
 20
-16.92368274909728
 30
0.0
 10
29.15324007098325
 20
-16.90639547725623
 30
0.0
 10
29.15265137161195
 20
-16.89171390411333
 30
0.0
 10
29.15241933739906
 20
-16.88592720306636
 30
0.0
  0
LINE
  5
2D8
330
1F
100
AcDbEntity
  8
1
  6
SLD-Gestrichelt
 62
   131
420
  8454143
370
     0
100
AcDbLine
 10
23.8034165923
 20
-15.6146558351
 30
0.0
 11
24.0010088739
 21
-16.2455959428
 31
0.0
  0
LINE
  5
2D9
330
1F
100
AcDbEntity
  8
1
  6
SLD-Gestrichelt
 62
   131
420
  8454143
370
     0
100
AcDbLine
 10
28.1822665008
 20
15.0092438599
 30
0.0
 11
28.2699719498
 21
14.5807187868
 31
0.0
  0
LINE
  5
2DA
330
1F
100
AcDbEntity
  8
1
  6
SLD-Gestrichelt
 62
   131
420
  8454143
370
     0
100
AcDbLine
 10
35.532045798
 20
14.5807187868
 30
0.0
 11
35.619751247
 21
15.0092438599
 31
0.0
  0
SPLINE
  5
2DB
330
1F
100
AcDbEntity
  8
1
  6
SLD-Gestrichelt
 62
   131
420
  8454143
370
     0
100
AcDbSpline
210
0.0
220
0.0
230
1.0
 70
     8
 71
     3
 72
    13
 73
     9
 74
     0
 42
0.00000001
 43
0.00000001
 12
1.0
 22
0.0
 32
0.0
 13
1.0
 23
0.0
 33
0.0
 40
0.0
 40
0.0
 40
0.0
 40
0.0
 40
0.1080005243476926
 40
0.2829980129943644
 40
0.4564932777040634
 40
0.6324633701392156
 40
0.8149343215719074
 40
1.0
 40
1.0
 40
1.0
 40
1.0
 10
29.3100114948046
 20
13.48345847812007
 30
0.0
 10
29.27100093296385
 20
13.50297139214529
 30
0.0
 10
29.16878002659877
 20
13.55410184665208
 30
0.0
 10
29.07671382052144
 20
13.61754320030968
 30
0.0
 10
29.02757335823834
 20
13.65800775215144
 30
0.0
 10
29.04058102817674
 20
13.64786280955017
 30
0.0
 10
29.0975239164128
 20
13.58150950453151
 30
0.0
 10
29.1482024001939
 20
13.48556148444841
 30
0.0
 10
29.17372053150563
 20
13.43724878854858
 30
0.0
  0
SPLINE
  5
2DC
330
1F
100
AcDbEntity
  8
1
  6
SLD-Gestrichelt
 62
   131
420
  8454143
370
     0
100
AcDbSpline
210
0.0
220
0.0
230
1.0
 70
     8
 71
     3
 72
    14
 73
    10
 74
     0
 42
0.00000001
 43
0.00000001
 12
1.0
 22
0.0
 32
0.0
 13
1.0
 23
0.0
 33
0.0
 40
0.0
 40
0.0
 40
0.0
 40
0.0
 40
0.0785464751548996
 40
0.2827058973356394
 40
0.4663350497060601
 40
0.6394892108788068
 40
0.8096769144005962
 40
0.9816658727234037
 40
1.0
 40
1.0
 40
1.0
 40
1.0
 10
34.63055772872332
 20
13.43487085178158
 30
0.0
 10
34.64050190259591
 20
13.45789582979722
 30
0.0
 10
34.67629315347471
 20
13.54076774808773
 30
0.0
 10
34.73575246886939
 20
13.61751472605689
 30
0.0
 10
34.77311783756707
 20
13.65962544410764
 30
0.0
 10
34.76185966869456
 20
13.64539389765021
 30
0.0
 10
34.68828208903425
 20
13.5926450299608
 30
0.0
 10
34.61003645237944
 20
13.54024441511336
 30
0.0
 10
34.54086252496006
 20
13.50690391710062
 30
0.0
 10
34.53419888988114
 20
13.50369217359559
 30
0.0
  0
SPLINE
  5
2DD
330
1F
100
AcDbEntity
  8
1
  6
SLD-Gestrichelt
 62
   131
420
  8454143
370
     0
100
AcDbSpline
210
0.0
220
0.0
230
1.0
 70
     8
 71
     3
 72
     9
 73
     5
 74
     0
 42
0.00000001
 43
0.00000001
 12
1.0
 22
0.0
 32
0.0
 13
1.0
 23
0.0
 33
0.0
 40
0.0
 40
0.0
 40
0.0
 40
0.0
 40
0.5708096980020141
 40
1.0
 40
1.0
 40
1.0
 40
1.0
 10
29.16932740838942
 20
13.4491847126973
 30
0.0
 10
29.16240184204078
 20
13.46636806935638
 30
0.0
 10
29.15026896067438
 20
13.49647154643329
 30
0.0
 10
29.15174645666393
 20
13.50796201180451
 30
0.0
 10
29.15238058361389
 20
13.51289360810728
 30
0.0
  0
SPLINE
  5
2DE
330
1F
100
AcDbEntity
  8
1
  6
SLD-Gestrichelt
 62
   131
420
  8454143
370
     0
100
AcDbSpline
210
0.0
220
0.0
230
1.0
 70
     8
 71
     3
 72
     9
 73
     5
 74
     0
 42
0.00000001
 43
0.00000001
 12
1.0
 22
0.0
 32
0.0
 13
1.0
 23
0.0
 33
0.0
 40
0.0
 40
0.0
 40
0.0
 40
0.0
 40
0.3503123641880616
 40
0.9999999999999999
 40
0.9999999999999999
 40
0.9999999999999999
 40
0.9999999999999999
 10
34.64958577463022
 20
13.51453125349918
 30
0.0
 10
34.65024011413385
 20
13.51010608007866
 30
0.0
 10
34.65210798855259
 20
13.49747400118878
 30
0.0
 10
34.63978140885323
 20
13.46694797181902
 30
0.0
 10
34.63177298243071
 20
13.44711558796706
 30
0.0
  0
LINE
  5
2DF
330
1F
100
AcDbEntity
  8
1
  6
SLD-Gestrichelt
 62
   131
420
  8454143
370
     0
100
AcDbLine
 10
29.1510088739
 20
13.513859918
 30
0.0
 11
29.1510088739
 21
11.3370476221
 31
0.0
  0
LINE
  5
2E0
330
1F
100
AcDbEntity
  8
1
  6
SLD-Gestrichelt
 62
   131
420
  8454143
370
     0
100
AcDbLine
 10
34.6510088739
 20
11.3370476221
 30
0.0
 11
34.6510088739
 21
13.513859918
 31
0.0
  0
LINE
  5
2E1
330
1F
100
AcDbEntity
  8
1
  6
SLD-Gestrichelt
 62
   131
420
  8454143
370
     0
100
AcDbLine
 10
23.8034165923
 20
14.7853441649
 30
0.0
 11
24.0010088739
 21
14.1544040572
 31
0.0
  0
LINE
  5
2E2
330
1F
100
AcDbEntity
  8
1
  6
SLD-Gestrichelt
 62
   131
420
  8454143
370
     0
100
AcDbLine
 10
35.619751247
 20
15.3897979861
 30
0.0
 11
35.532045798
 21
15.8183230593
 31
0.0
  0
LINE
  5
2E3
330
1F
100
AcDbEntity
  8
1
  6
SLD-Gestrichelt
 62
   131
420
  8454143
370
     0
100
AcDbLine
 10
28.2699719498
 20
15.8183230593
 30
0.0
 11
28.1822665008
 21
15.3897979861
 31
0.0
  0
SPLINE
  5
2E4
330
1F
100
AcDbEntity
  8
1
  6
SLD-Gestrichelt
 62
   131
420
  8454143
370
     0
100
AcDbSpline
210
0.0
220
0.0
230
1.0
 70
     8
 71
     3
 72
    14
 73
    10
 74
     0
 42
0.00000001
 43
0.00000001
 12
1.0
 22
0.0
 32
0.0
 13
1.0
 23
0.0
 33
0.0
 40
0.0
 40
0.0
 40
0.0
 40
0.0
 40
0.075626354249164
 40
0.2795963424063515
 40
0.4631368122929029
 40
0.636285454977835
 40
0.8065264186148848
 40
0.9785949796155871
 40
1.0
 40
1.0
 40
1.0
 40
1.0
 10
29.16955148361916
 20
16.95998810891831
 30
0.0
 10
29.15996506983752
 20
16.9379210417603
 30
0.0
 10
29.1245233741912
 20
16.85633742813426
 30
0.0
 10
29.06569462535442
 20
16.78087985191607
 30
0.0
 10
29.02875601037131
 20
16.73930679636618
 30
0.0
 10
29.04057931499275
 20
16.75400149200385
 30
0.0
 10
29.11458339660524
 20
16.8070175823661
 30
0.0
 10
29.19427806986336
 20
16.86009627190513
 30
0.0
 10
29.26490442008267
 20
16.89403366599518
 30
0.0
 10
29.27271819215065
 20
16.89778834199327
 30
0.0
  0
SPLINE
  5
2E5
330
1F
100
AcDbEntity
  8
1
  6
SLD-Gestrichelt
 62
   131
420
  8454143
370
     0
100
AcDbSpline
210
0.0
220
0.0
230
1.0
 70
     8
 71
     3
 72
    13
 73
     9
 74
     0
 42
0.00000001
 43
0.00000001
 12
1.0
 22
0.0
 32
0.0
 13
1.0
 23
0.0
 33
0.0
 40
0.0
 40
0.0
 40
0.0
 40
0.0
 40
0.0793301090575916
 40
0.2602344380575757
 40
0.4395513230017385
 40
0.6213929820200512
 40
0.8098966570283653
 40
1.0
 40
1.0
 40
1.0
 40
1.0
 10
34.52225928558045
 20
16.90002441210942
 30
0.0
 10
34.54977252027489
 20
16.8862194256423
 30
0.0
 10
34.64002691743767
 20
16.84093355703149
 30
0.0
 10
34.72390231091345
 20
16.78223787246204
 30
0.0
 10
34.77446348374627
 20
16.7411600056977
 30
0.0
 10
34.76174938627464
 20
16.75083668745728
 30
0.0
 10
34.70533949992584
 20
16.81636678800522
 30
0.0
 10
34.65483494877586
 20
16.9116060214547
 30
0.0
 10
34.62947597878075
 20
16.95942683776551
 30
0.0
  0
SPLINE
  5
2E6
330
1F
100
AcDbEntity
  8
1
  6
SLD-Gestrichelt
 62
   131
420
  8454143
370
     0
100
AcDbSpline
210
0.0
220
0.0
230
1.0
 70
     8
 71
     3
 72
    10
 73
     6
 74
     0
 42
0.00000001
 43
0.00000001
 12
1.0
 22
0.0
 32
0.0
 13
1.0
 23
0.0
 33
0.0
 40
0.0
 40
0.0
 40
0.0
 40
0.0
 40
0.3006796820043169
 40
0.9399884982524023
 40
1.0
 40
1.0
 40
1.0
 40
1.0
 10
29.1523805836139
 20
16.88421561815172
 30
0.0
 10
29.15229422865582
 20
16.88882344254377
 30
0.0
 10
29.15202426473003
 20
16.90322847949745
 30
0.0
 10
29.14966583927588
 20
16.91841825383908
 30
0.0
 10
29.17085351675023
 20
16.9528152291653
 30
0.0
 10
29.17267171695272
 20
16.95576697258213
 30
0.0
  0
SPLINE
  5
2E7
330
1F
100
AcDbEntity
  8
1
  6
SLD-Gestrichelt
 62
   131
420
  8454143
370
     0
100
AcDbSpline
210
0.0
220
0.0
230
1.0
 70
     8
 71
     3
 72
    10
 73
     6
 74
     0
 42
0.00000001
 43
0.00000001
 12
1.0
 22
0.0
 32
0.0
 13
1.0
 23
0.0
 33
0.0
 40
0.0
 40
0.0
 40
0.0
 40
0.0
 40
0.0096936429314134
 40
0.6216932238125412
 40
1.0
 40
1.0
 40
1.0
 40
1.0
 10
34.63128718693413
 20
16.95376554430367
 30
0.0
 10
34.63159003771984
 20
16.95329020327915
 30
0.0
 10
34.65101310525296
 20
16.92280462669667
 30
0.0
 10
34.6488135598044
 20
16.90574589490546
 30
0.0
 10
34.64937232197938
 20
16.8913519081624
 30
0.0
 10
34.64958577463022
 20
16.88585326354361
 30
0.0
  0
LINE
  5
2E8
330
1F
100
AcDbEntity
  8
1
  6
SLD-Gestrichelt
 62
   131
420
  8454143
370
     0
100
AcDbLine
 10
34.6510088739
 20
16.885181928
 30
0.0
 11
34.6510088739
 21
19.0619942239
 31
0.0
  0
LINE
  5
2E9
330
1F
100
AcDbEntity
  8
1
  6
SLD-Gestrichelt
 62
   131
420
  8454143
370
     0
100
AcDbLine
 10
29.1510088739
 20
19.0619942239
 30
0.0
 11
29.1510088739
 21
16.885181928
 31
0.0
  0
LINE
  5
2EA
330
1F
100
AcDbEntity
  8
1
  6
SLD-Gestrichelt
 62
   131
420
  8454143
370
     0
100
AcDbLine
 10
24.0010088739
 20
16.2446377888
 30
0.0
 11
23.8034165923
 21
15.6136976812
 31
0.0
  0
LINE
  5
2EB
330
1F
100
AcDbEntity
  8
1
  6
SLD-Gestrichelt
 62
   131
420
  8454143
370
     0
100
AcDbLine
 10
34.6510088739
 20
-13.514818072
 30
0.0
 11
34.6510088739
 21
-11.3380057761
 31
0.0
  0
LINE
  5
2EC
330
1F
100
AcDbEntity
  8
1
  6
SLD-Gestrichelt
 62
   131
420
  8454143
370
     0
100
AcDbLine
 10
29.1510088739
 20
-11.3380057761
 30
0.0
 11
29.1510088739
 21
-13.514818072
 31
0.0
  0
LINE
  5
2ED
330
1F
100
AcDbEntity
  8
1
  6
SLD-Gestrichelt
 62
   131
420
  8454143
370
     0
100
AcDbLine
 10
35.619751247
 20
-15.0102020139
 30
0.0
 11
35.532045798
 21
-14.5816769407
 31
0.0
  0
LINE
  5
2EE
330
1F
100
AcDbEntity
  8
1
  6
SLD-Gestrichelt
 62
   131
420
  8454143
370
     0
100
AcDbLine
 10
28.2699719498
 20
-14.5816769407
 30
0.0
 11
28.1822665008
 21
-15.0102020139
 31
0.0
  0
SPLINE
  5
2EF
330
1F
100
AcDbEntity
  8
1
  6
SLD-Gestrichelt
 62
   131
420
  8454143
370
     0
100
AcDbSpline
210
0.0
220
0.0
230
1.0
 70
     8
 71
     3
 72
    13
 73
     9
 74
     0
 42
0.00000001
 43
0.00000001
 12
1.0
 22
0.0
 32
0.0
 13
1.0
 23
0.0
 33
0.0
 40
0.0
 40
0.0
 40
0.0
 40
0.0
 40
0.0794215048131315
 40
0.2603113778213173
 40
0.4396484451333274
 40
0.621543670716282
 40
0.8101586473516676
 40
1.0
 40
1.0
 40
1.0
 40
1.0
 10
34.5238811519297
 20
-13.50081342091585
 30
0.0
 10
34.55133576597793
 20
-13.5146174072845
 30
0.0
 10
34.64132082011739
 20
-13.55986125804638
 30
0.0
 10
34.72467866477419
 20
-13.61833701925223
 30
0.0
 10
34.77461447530209
 20
-13.65901362725198
 30
0.0
 10
34.76138626093695
 20
-13.64879522919442
 30
0.0
 10
34.70466587995495
 20
-13.58269484704971
 30
0.0
 10
34.65418068529858
 20
-13.48714238263655
 30
0.0
 10
34.62885629011561
 20
-13.43921133302931
 30
0.0
  0
SPLINE
  5
2F0
330
1F
100
AcDbEntity
  8
1
  6
SLD-Gestrichelt
 62
   131
420
  8454143
370
     0
100
AcDbSpline
210
0.0
220
0.0
230
1.0
 70
     8
 71
     3
 72
    14
 73
    10
 74
     0
 42
0.00000001
 43
0.00000001
 12
1.0
 22
0.0
 32
0.0
 13
1.0
 23
0.0
 33
0.0
 40
0.0
 40
0.0
 40
0.0
 40
0.0
 40
0.0771804659377668
 40
0.2741907325406034
 40
0.4513896483590712
 40
0.6184803811386261
 40
0.7827085342417944
 40
0.9486748666794104
 40
1.0
 40
1.0
 40
1.0
 40
1.0
 10
29.17200530060087
 20
-13.43461852790903
 30
0.0
 10
29.16187907606751
 20
-13.45807612928408
 30
0.0
 10
29.12590472829782
 20
-13.54141142438138
 30
0.0
 10
29.06629109006913
 20
-13.61849306914049
 30
0.0
 10
29.02881877300763
 20
-13.66059402557432
 30
0.0
 10
29.04044001193366
 20
-13.64629618321815
 30
0.0
 10
29.11269681302252
 20
-13.59381438193649
 30
0.0
 10
29.20232446274661
 20
-13.53557056481243
 30
0.0
 10
29.28564879432933
 20
-13.49582240485803
 30
0.0
 10
29.30533034239386
 20
-13.48643372683615
 30
0.0
  0
SPLINE
  5
2F1
330
1F
100
AcDbEntity
  8
1
  6
SLD-Gestrichelt
 62
   131
420
  8454143
370
     0
100
AcDbSpline
210
0.0
220
0.0
230
1.0
 70
     8
 71
     3
 72
     9
 73
     5
 74
     0
 42
0.00000001
 43
0.00000001
 12
1.0
 22
0.0
 32
0.0
 13
1.0
 23
0.0
 33
0.0
 40
0.0
 40
0.0
 40
0.0
 40
0.0
 40
0.5667937315061832
 40
0.9999999999999999
 40
0.9999999999999999
 40
0.9999999999999999
 40
0.9999999999999999
 10
34.63214410709107
 20
-13.44862252155874
 30
0.0
 10
34.6392904117231
 20
-13.46636553095309
 30
0.0
 10
34.65189871035945
 20
-13.49766970460231
 30
0.0
 10
34.65034204874696
 20
-13.50960244099988
 30
0.0
 10
34.64966769317851
 20
-13.5147717772076
 30
0.0
  0
SPLINE
  5
2F2
330
1F
100
AcDbEntity
  8
1
  6
SLD-Gestrichelt
 62
   131
420
  8454143
370
     0
100
AcDbSpline
210
0.0
220
0.0
230
1.0
 70
     8
 71
     3
 72
     9
 73
     5
 74
     0
 42
0.00000001
 43
0.00000001
 12
1.0
 22
0.0
 32
0.0
 13
1.0
 23
0.0
 33
0.0
 40
0.0
 40
0.0
 40
0.0
 40
0.0
 40
0.3433005055273227
 40
1.0
 40
1.0
 40
1.0
 40
1.0
 10
29.15241933739906
 20
-13.51460519302194
 30
0.0
 10
29.15181335222183
 20
-13.51041911051487
 30
0.0
 10
29.1500481780742
 20
-13.49822547129885
 30
0.0
 10
29.1619395755184
 20
-13.46881595229229
 30
0.0
 10
29.16974865020858
 20
-13.44950273602799
 30
0.0
  0
LINE
  5
2F3
330
1F
100
AcDbEntity
  8
1
  6
SLD-Gestrichelt
 62
   131
420
  8454143
370
     0
100
AcDbLine
 10
24.0010088739
 20
-14.1553622112
 30
0.0
 11
23.8034165923
 21
-14.7863023188
 31
0.0
  0
LINE
  5
2F4
330
1F
100
AcDbEntity
  8
1
  6
SLD-Gestrichelt
 62
   131
420
  8454143
370
     0
100
AcDbLine
 10
34.6510088739
 20
-11.078198155
 30
0.0
 11
34.6510088739
 21
-0.8436357097
 31
0.0
  0
LINE
  5
2F5
330
1F
100
AcDbEntity
  8
1
  6
SLD-Gestrichelt
 62
   131
420
  8454143
370
     0
100
AcDbLine
 10
29.1510088739
 20
-0.8436357097
 30
0.0
 11
29.1510088739
 21
-11.078198155
 31
0.0
  0
LINE
  5
2F6
330
1F
100
AcDbEntity
  8
1
  6
SLD-Gestrichelt
 62
   131
420
  8454143
370
     0
100
AcDbLine
 10
34.6510088739
 20
19.321801845
 30
0.0
 11
34.6510088739
 21
29.5563642903
 31
0.0
  0
LINE
  5
2F7
330
1F
100
AcDbEntity
  8
1
  6
SLD-Gestrichelt
 62
   131
420
  8454143
370
     0
100
AcDbLine
 10
29.1510088739
 20
29.5563642903
 30
0.0
 11
29.1510088739
 21
19.321801845
 31
0.0
  0
SPLINE
  5
2F8
330
1F
100
AcDbEntity
  8
1
  6
SLD-Gestrichelt
 62
   131
420
  8454143
370
     0
100
AcDbSpline
210
0.0
220
0.0
230
1.0
 70
     8
 71
     3
 72
    20
 73
    16
 74
     0
 42
0.00000001
 43
0.00000001
 12
1.0
 22
0.0
 32
0.0
 13
1.0
 23
0.0
 33
0.0
 40
0.0
 40
0.0
 40
0.0
 40
0.0
 40
0.0450689531879246
 40
0.1303841462369121
 40
0.2157176515769778
 40
0.3010735004147466
 40
0.3864635948878745
 40
0.4719001077648721
 40
0.5573955406292653
 40
0.642962746116481
 40
0.7286148895125172
 40
0.8143653152405443
 40
0.9002272669509036
 40
0.9862133857476921
 40
1.0
 40
1.0
 40
1.0
 40
1.0
 10
29.00100887389477
 20
-11.54951718265092
 30
0.0
 10
28.76940175176358
 20
-11.55053944294892
 30
0.0
 10
28.09936407071192
 20
-11.55349683438489
 30
0.0
 10
26.99195054502846
 20
-11.58629046242378
 30
0.0
 10
25.68366000743596
 20
-11.65969324170786
 30
0.0
 10
24.38466631673555
 20
-11.76976660128789
 30
0.0
 10
23.09864508878485
 20
-11.91563610650683
 30
0.0
 10
21.82916032650727
 20
-12.09715171170683
 30
0.0
 10
20.57973996769552
 20
-12.31388648327862
 30
0.0
 10
19.35381779908129
 20
-12.56538474968254
 30
0.0
 10
18.15487255653897
 20
-12.85119890408073
 30
0.0
 10
16.98587943016788
 20
-13.1705287365349
 30
0.0
 10
15.85132956554734
 20
-13.52367020537646
 30
0.0
 10
15.05857053748032
 20
-13.79923676273116
 30
0.0
 10
14.64486672106
 20
-13.95655264762631
 30
0.0
 10
14.58770105307246
 20
-13.97829058498183
 30
0.0
  0
LINE
  5
2F9
330
1F
100
AcDbEntity
  8
1
  6
SLD-Gestrichelt
 62
   131
420
  8454143
370
     0
100
AcDbLine
 10
30.5707527528
 20
-11.5495171827
 30
0.0
 11
29.0010088739
 21
-11.5495171827
 31
0.0
  0
LINE
  5
2FA
330
1F
100
AcDbEntity
  8
1
  6
SLD-Gestrichelt
 62
   131
420
  8454143
370
     0
100
AcDbLine
 10
6.3010088739
 20
-11.000479077
 30
0.0
 11
20.0010088739
 21
-11.000479077
 31
0.0
  0
LINE
  5
2FB
330
1F
100
AcDbEntity
  8
1
  6
SLD-Gestrichelt
 62
   131
420
  8454143
370
     0
100
AcDbLine
 10
20.0010088739
 20
10.999520923
 30
0.0
 11
6.3010088739
 21
10.999520923
 31
0.0
  0
LINE
  5
2FC
330
1F
100
AcDbEntity
  8
1
  6
SLD-Gestrichelt
 62
   131
420
  8454143
370
     0
100
AcDbLine
 10
32.2010088739
 20
9.499520923
 30
0.0
 11
31.2010088739
 21
8.499520923
 31
0.0
  0
LINE
  5
2FD
330
1F
100
AcDbEntity
  8
1
  6
SLD-Gestrichelt
 62
   131
420
  8454143
370
     0
100
AcDbLine
 10
31.2010088739
 20
-8.500479077
 30
0.0
 11
32.2010088739
 21
-9.500479077
 31
0.0
  0
LINE
  5
2FE
330
1F
100
AcDbEntity
  8
1
  6
SLD-Gestrichelt
 62
   131
420
  8454143
370
     0
100
AcDbLine
 10
24.0010088739
 20
-8.500479077
 30
0.0
 11
31.2010088739
 21
-8.500479077
 31
0.0
  0
LINE
  5
2FF
330
1F
100
AcDbEntity
  8
1
  6
SLD-Gestrichelt
 62
   131
420
  8454143
370
     0
100
AcDbLine
 10
31.2010088739
 20
8.499520923
 30
0.0
 11
24.0010088739
 21
8.499520923
 31
0.0
  0
LINE
  5
300
330
1F
100
AcDbEntity
  8
1
  6
SLD-Gestrichelt
 62
   131
420
  8454143
370
     0
100
AcDbLine
 10
20.0010088739
 20
-5.250479077
 30
0.0
 11
24.0010088739
 21
-5.250479077
 31
0.0
  0
LINE
  5
301
330
1F
100
AcDbEntity
  8
1
  6
SLD-Gestrichelt
 62
   131
420
  8454143
370
     0
100
AcDbLine
 10
24.0010088739
 20
5.249520923
 30
0.0
 11
20.0010088739
 21
5.249520923
 31
0.0
  0
LINE
  5
302
330
1F
100
AcDbEntity
  8
1
  6
SLD-Gestrichelt
 62
   131
420
  8454143
370
     0
100
AcDbLine
 10
29.0010088739
 20
21.999520923
 30
0.0
 11
32.2010088739
 21
21.999520923
 31
0.0
  0
ARC
  5
303
330
1F
100
AcDbEntity
  8
1
  6
SLD-Gestrichelt
 62
   131
420
  8454143
370
     0
100
AcDbCircle
 10
29.0010088739
 20
46.499520923
 30
0.0
 40
24.5
100
AcDbArc
 50
232.5885484288
 51
270.0
  0
ARC
  5
304
330
1F
100
AcDbEntity
  8
1
  6
SLD-Gestrichelt
 62
   131
420
  8454143
370
     0
100
AcDbCircle
 10
29.0010088739
 20
-46.500479077
 30
0.0
 40
24.5
100
AcDbArc
 50
90.0
 51
127.4092257444
  0
LINE
  5
305
330
1F
100
AcDbEntity
  8
1
  6
SLD-Gestrichelt
 62
   131
420
  8454143
370
     0
100
AcDbLine
 10
32.2010088739
 20
-22.000479077
 30
0.0
 11
29.0010088739
 21
-22.000479077
 31
0.0
  0
LINE
  5
306
330
1F
100
AcDbEntity
  8
1
  6
SLD-Gestrichelt
 62
   131
420
  8454143
370
     0
100
AcDbLine
 10
29.1510088739
 20
-19.322759999
 30
0.0
 11
29.1510088739
 21
-29.5573224442
 31
0.0
  0
LINE
  5
307
330
1F
100
AcDbEntity
  8
1
  6
SLD-Gestrichelt
 62
   131
420
  8454143
370
     0
100
AcDbLine
 10
34.6510088739
 20
-29.5573224442
 30
0.0
 11
34.6510088739
 21
-19.322759999
 31
0.0
  0
LINE
  5
308
330
1F
100
AcDbEntity
  8
1
  6
SLD-Gestrichelt
 62
   131
420
  8454143
370
     0
100
AcDbLine
 10
29.0010088739
 20
11.5485590287
 30
0.0
 11
30.5707527528
 21
11.5485590287
 31
0.0
  0
SPLINE
  5
309
330
1F
100
AcDbEntity
  8
1
  6
SLD-Gestrichelt
 62
   131
420
  8454143
370
     0
100
AcDbSpline
210
0.0
220
0.0
230
1.0
 70
     8
 71
     3
 72
    20
 73
    16
 74
     0
 42
0.00000001
 43
0.00000001
 12
1.0
 22
0.0
 32
0.0
 13
1.0
 23
0.0
 33
0.0
 40
0.0
 40
0.0
 40
0.0
 40
0.0
 40
0.0308220322894263
 40
0.1168630565121969
 40
0.2027897907375454
 40
0.2886035342810825
 40
0.3743143832361781
 40
0.4599338595662222
 40
0.5454741463055015
 40
0.6309476272891251
 40
0.7163666308113212
 40
0.8017433084883132
 40
0.8870896025391939
 40
0.9724172699688987
 40
1.0
 40
1.0
 40
1.0
 40
1.0
 10
14.58851974889162
 20
13.97780373581713
 30
0.0
 10
14.71659284059733
 20
13.92940301852613
 30
0.0
 10
15.20218745723881
 20
13.74588962437692
 30
0.0
 10
16.07453840025995
 20
13.44995296130472
 30
0.0
 10
17.21706727213923
 20
13.10297625733073
 30
0.0
 10
18.39352480232768
 20
12.79007243769563
 30
0.0
 10
19.59921704930003
 20
12.51086807516197
 30
0.0
 10
20.83113364996067
 20
12.26617559236569
 30
0.0
 10
22.08574245528491
 20
12.05641726896554
 30
0.0
 10
23.35957642602146
 20
11.88203099548958
 30
0.0
 10
24.64907992636883
 20
11.74340483203921
 30
0.0
 10
25.9506724789706
 20
11.64070907191779
 30
0.0
 10
27.26069381823
 20
11.57460995590933
 30
0.0
 10
28.27904297387322
 20
11.5505666955803
 30
0.0
 10
28.85926677684377
 20
11.54895318985781
 30
0.0
 10
29.00100887389477
 20
11.54855902870216
 30
0.0
  0
LINE
  5
30A
330
1F
100
AcDbEntity
  8
1
  6
SLD-Gestrichelt
 62
   131
420
  8454143
370
     0
100
AcDbLine
 10
29.1510088739
 20
11.077240001
 30
0.0
 11
29.1510088739
 21
0.8426775558
 31
0.0
  0
LINE
  5
30B
330
1F
100
AcDbEntity
  8
1
  6
SLD-Gestrichelt
 62
   131
420
  8454143
370
     0
100
AcDbLine
 10
34.6510088739
 20
0.8426775558
 30
0.0
 11
34.6510088739
 21
11.077240001
 31
0.0
  0
ARC
  5
30C
330
1F
100
AcDbEntity
  8
1
  6
SLD-Gestrichelt
 62
   131
420
  8454143
370
     0
100
AcDbCircle
 10
31.9010088739
 20
30.399520923
 30
0.0
 40
2.808850000000003
100
AcDbArc
 50
169.0187563554
 51
0.5222212167
  0
LWPOLYLINE
  5
30D
330
1F
100
AcDbEntity
  8
1
  6
SLD-Gestrichelt
 62
   131
420
  8454143
370
     0
100
AcDbPolyline
 90
       12
 70
   128
 43
0.0
 10
31.9010088739
 20
18.0287956781
 10
31.4263109197
 20
18.0085943029
 10
30.9652691614
 20
17.9485713344
 10
30.531146931
 20
17.8504535239
 10
30.1364331345
 20
17.7170635423
 10
29.7924829693
 20
17.5522387764
 10
29.5091912554
 20
17.3607209348
 10
29.2947077796
 20
17.1480196369
 10
29.155202841
 20
16.9202539118
 10
29.0946897427
 20
16.6839761648
 10
29.1149093363
 20
16.4459836766
 10
29.1149804354
 20
16.4457062845
  0
LWPOLYLINE
  5
30E
330
1F
100
AcDbEntity
  8
1
  6
SLD-Gestrichelt
 62
   131
420
  8454143
370
     0
100
AcDbPolyline
 90
       12
 70
   128
 43
0.0
 10
34.6870373124
 20
16.4457062845
 10
34.6871084115
 20
16.4459836766
 10
34.7073280051
 20
16.6839761648
 10
34.6468149068
 20
16.9202539118
 10
34.5073099682
 20
17.1480196369
 10
34.2928264924
 20
17.3607209348
 10
34.0095347785
 20
17.5522387764
 10
33.6655846133
 20
17.7170635423
 10
33.2708708168
 20
17.8504535239
 10
32.8367485864
 20
17.9485713344
 10
32.3757068281
 20
18.0085943029
 10
31.9010088739
 20
18.0287956781
  0
LWPOLYLINE
  5
30F
330
1F
100
AcDbEntity
  8
1
  6
SLD-Gestrichelt
 62
   131
420
  8454143
370
     0
100
AcDbPolyline
 90
       12
 70
   128
 43
0.0
 10
31.9010088739
 20
18.260181928
 10
31.436256618
 20
18.2404038048
 10
30.9848744384
 20
18.1816384156
 10
30.5598477784
 20
18.0855763336
 10
30.1734038813
 20
17.9549810902
 10
29.8366600344
 20
17.7936096727
 10
29.5593037451
 20
17.6061044429
 10
29.3493140488
 20
17.397859585
 10
29.2127319668
 20
17.1748659243
 10
29.1534867168
 20
16.9435385824
 10
29.1732826769
 20
16.7105324259
 10
29.2509938471
 20
16.5177855625
  0
LWPOLYLINE
  5
310
330
1F
100
AcDbEntity
  8
1
  6
SLD-Gestrichelt
 62
   131
420
  8454143
370
     0
100
AcDbPolyline
 90
       12
 70
   128
 43
0.0
 10
34.5510239007
 20
16.5177855625
 10
34.6287350709
 20
16.7105324259
 10
34.648531031
 20
16.9435385824
 10
34.589285781
 20
17.1748659243
 10
34.452703699
 20
17.397859585
 10
34.2427140027
 20
17.6061044429
 10
33.9653577133
 20
17.7936096727
 10
33.6286138665
 20
17.9549810902
 10
33.2421699694
 20
18.0855763336
 10
32.8171433094
 20
18.1816384156
 10
32.3657611298
 20
18.2404038048
 10
31.9010088739
 20
18.260181928
  0
LINE
  5
311
330
1F
100
AcDbEntity
  8
1
  6
SLD-Gestrichelt
 62
   131
420
  8454143
370
     0
100
AcDbLine
 10
30.9621741091
 20
11.1788102449
 30
0.0
 11
30.9621741091
 21
15.3010911669
 31
0.0
  0
LINE
  5
312
330
1F
100
AcDbEntity
  8
1
  6
SLD-Gestrichelt
 62
   131
420
  8454143
370
     0
100
AcDbLine
 10
29.0010088739
 20
-12.9187835685
 30
0.0
 11
29.0010088739
 21
-11.5495173396
 31
0.0
  0
ARC
  5
313
330
1F
100
AcDbEntity
  8
1
  6
SLD-Gestrichelt
 62
   131
420
  8454143
370
     0
100
AcDbCircle
 10
28.6878582239
 20
-56.7720872585
 30
0.0
 40
43.85442175940377
100
AcDbArc
 50
89.5908653596
 51
106.1844361926
  0
LINE
  5
314
330
1F
100
AcDbEntity
  8
1
  6
SLD-Gestrichelt
 62
   131
420
  8454143
370
     0
100
AcDbLine
 10
29.0010088739
 20
-18.6878848553
 30
0.0
 11
29.0010088739
 21
-12.9187835685
 31
0.0
  0
LINE
  5
315
330
1F
100
AcDbEntity
  8
1
  6
SLD-Gestrichelt
 62
   131
420
  8454143
370
     0
100
AcDbLine
 10
31.1035954653
 20
-11.6700943192
 30
0.0
 11
31.1035954653
 21
-11.150479077
 31
0.0
  0
LINE
  5
316
330
1F
100
AcDbEntity
  8
1
  6
SLD-Gestrichelt
 62
   131
420
  8454143
370
     0
100
AcDbLine
 10
31.1035954653
 20
-10.6040689155
 30
0.0
 11
31.1035954653
 21
-7.028198155
 31
0.0
  0
LINE
  5
317
330
1F
100
AcDbEntity
  8
1
  6
SLD-Gestrichelt
 62
   131
420
  8454143
370
     0
100
AcDbLine
 10
31.1035954653
 20
11.8959310845
 30
0.0
 11
31.1035954653
 21
15.271801845
 31
0.0
  0
ARC
  5
318
330
1F
100
AcDbEntity
  8
1
  6
SLD-Gestrichelt
 62
   131
420
  8454143
370
     0
100
AcDbCircle
 10
29.0010088739
 20
46.499520923
 30
0.0
 40
23.0
100
AcDbArc
 50
234.1518555865
 51
270.0
  0
LINE
  5
319
330
1F
100
AcDbEntity
  8
1
  6
SLD-Gestrichelt
 62
   131
420
  8454143
370
     0
100
AcDbLine
 10
31.1035954653
 20
-11.150479077
 30
0.0
 11
31.1035954653
 21
-15.272759999
 31
0.0
  0
LINE
  5
31A
330
1F
100
AcDbEntity
  8
1
  6
SLD-Gestrichelt
 62
   131
420
  8454143
370
     0
100
AcDbLine
 10
31.1035954653
 20
11.149520923
 30
0.0
 11
31.1035954653
 21
7.027240001
 31
0.0
  0
DIMENSION
  5
31B
330
1F
100
AcDbEntity
  8
2
 62
     7
420
 16777215
100
AcDbDimension
  2
_D
 10
62.0010088739
 20
-31.500479077
 30
0.0
 11
62.0010088739
 21
-0.000479077
 31
0.0
 70
   160
  1
%%c<>
 71
     2
 42
-1.0
 73
     0
 74
     0
 75
     0
  3
SLDDIMSTYLE0
100
AcDbAlignedDimension
 13
40.0010088739
 23
31.499520923
 33
0.0
 14
40.0010088739
 24
-31.500479077
 34
0.0
 50
90.0
100
AcDbRotatedDimension
  0
DIMENSION
  5
328
330
1F
100
AcDbEntity
  8
2
 62
     7
420
 16777215
100
AcDbDimension
  2
_D_1
 10
0.0010088739
 20
54.499520923
 30
0.0
 11
20.0010088739
 21
54.499520923
 31
0.0
 70
   160
  1
<>
 71
     2
 42
-1.0
 73
     0
 74
     0
 75
     0
  3
SLDDIMSTYLE0
100
AcDbAlignedDimension
 13
40.0010088739
 23
-0.000479077
 33
0.0
 14
0.0010088739
 24
-0.000479077
 34
0.0
100
AcDbRotatedDimension
  0
DIMENSION
  5
332
330
1F
100
AcDbEntity
  8
2
 62
     7
420
 16777215
100
AcDbDimension
  2
_D_2
 10
33.0010088739
 20
48.499520923
 30
0.0
 11
36.5010088739
 21
48.499520923
 31
0.0
 70
   160
  1
<>
 71
     2
 42
-1.0
 73
     0
 74
     0
 75
     0
  3
SLDDIMSTYLE1
100
AcDbAlignedDimension
 13
40.0010088739
 23
-0.000479077
 33
0.0
 14
33.0010088739
 24
-0.000479077
 34
0.0
100
AcDbRotatedDimension
  0
DIMENSION
  5
33F
330
1F
100
AcDbEntity
  8
2
 62
     7
420
 16777215
100
AcDbDimension
  2
_D_3
 10
-9.9989911261
 20
-11.000479077
 30
0.0
 11
-9.9989911261
 21
-0.000479077
 31
0.0
 70
   160
  1
%%c<>
 71
     2
 42
-1.0
 73
     0
 74
     0
 75
     0
  3
SLDDIMSTYLE1
100
AcDbAlignedDimension
 13
20.0010088739
 23
10.999520923
 33
0.0
 14
20.0010088739
 24
-11.000479077
 34
0.0
 50
90.0
100
AcDbRotatedDimension
  0
DIMENSION
  5
34C
330
1F
100
AcDbEntity
  8
2
 62
     7
420
 16777215
100
AcDbDimension
  2
_D_4
 10
50.0010088739
 20
-5.250479077
 30
0.0
 11
50.0010088739
 21
-21.351503733
 31
0.0
 70
   160
  1
%%c<>
 71
     2
 42
-1.0
 73
     0
 74
     0
 75
     0
  3
SLDDIMSTYLE0
100
AcDbAlignedDimension
 13
24.0010088739
 23
5.249520923
 33
0.0
 14
24.0010088739
 24
-5.250479077
 34
0.0
 50
90.0
100
AcDbRotatedDimension
  0
DIMENSION
  5
358
330
1F
100
AcDbEntity
  8
2
 62
     7
420
 16777215
100
AcDbDimension
  2
_D_5
 10
-15.9989911261
 20
-24.000479077
 30
0.0
 11
-15.9989911261
 21
-0.000479077
 31
0.0
 70
   160
  1
%%c<>
 71
     2
 42
-1.0
 73
     0
 74
     0
 75
     0
  3
SLDDIMSTYLE0
100
AcDbAlignedDimension
 13
5.0010088739
 23
23.999520923
 33
0.0
 14
5.0010088739
 24
-24.000479077
 34
0.0
 50
90.0
100
AcDbRotatedDimension
  0
ENDSEC
  0
SECTION
  2
OBJECTS
  0
DICTIONARY
  5
C
330
0
100
AcDbDictionary
281
     1
  3
ACAD_GROUP
350
D
  3
ACAD_LAYOUT
350
1A
  3
ACAD_MATERIAL
350
3B
  3
ACAD_MLEADERSTYLE
350
364
  3
ACAD_MLINESTYLE
350
17
  3
ACAD_PLOTSETTINGS
350
19
  3
ACAD_PLOTSTYLENAME
350
E
  3
ACAD_TABLESTYLE
350
363
  3
ACAD_VISUALSTYLE
350
2A
  0
DICTIONARY
  5
D
102
{ACAD_REACTORS
330
C
102
}
330
C
100
AcDbDictionary
281
     1
  0
DICTIONARY
  5
1A
102
{ACAD_REACTORS
330
C
102
}
330
C
100
AcDbDictionary
281
     1
  3
Layout1
350
1E
  3
Layout2
350
26
  3
Model
350
22
  0
DICTIONARY
  5
3B
102
{ACAD_REACTORS
330
C
102
}
330
C
100
AcDbDictionary
281
     1
  3
ByBlock
350
3D
  3
ByLayer
350
3C
  3
Global
350
3E
  0
DICTIONARY
  5
364
102
{ACAD_REACTORS
330
C
102
}
330
C
100
AcDbDictionary
281
     1
  0
DICTIONARY
  5
17
102
{ACAD_REACTORS
330
C
102
}
330
C
100
AcDbDictionary
281
     1
  3
Standard
350
18
  0
DICTIONARY
  5
19
102
{ACAD_REACTORS
330
C
102
}
330
C
100
AcDbDictionary
281
     1
  0
ACDBDICTIONARYWDFLT
  5
E
102
{ACAD_REACTORS
330
C
102
}
330
C
100
AcDbDictionary
281
     1
  3
Normal
350
F
100
AcDbDictionaryWithDefault
340
F
  0
DICTIONARY
  5
363
102
{ACAD_REACTORS
330
C
102
}
330
C
100
AcDbDictionary
281
     1
  0
DICTIONARY
  5
2A
102
{ACAD_REACTORS
330
C
102
}
330
C
100
AcDbDictionary
281
     1
  3
2dWireframe
350
2F
  3
3D Hidden
350
31
  3
3dWireframe
350
30
  3
Basic
350
32
  3
Brighten
350
36
  3
ColorChange
350
3A
  3
Conceptual
350
34
  3
Dim
350
35
  3
Facepattern
350
39
  3
Flat
350
2B
  3
FlatWithEdges
350
2C
  3
Gouraud
350
2D
  3
GouraudWithEdges
350
2E
  3
Linepattern
350
38
  3
Realistic
350
33
  3
Thicken
350
37
  0
LAYOUT
  5
1E
102
{ACAD_REACTORS
330
1A
102
}
330
1A
100
AcDbPlotSettings
  1

  2
none_device
  4

  6

 40
0.0
 41
0.0
 42
0.0
 43
0.0
 44
0.0
 45
0.0
 46
0.0
 47
0.0
 48
0.0
 49
0.0
140
0.0
141
0.0
142
1.0
143
1.0
 70
   688
 72
     0
 73
     0
 74
     5
  7

 75
    16
 76
     0
 77
     2
 78
   300
147
1.0
148
0.0
149
0.0
100
AcDbLayout
  1
Layout1
 70
     1
 71
     1
 10
0.0
 20
0.0
 11
420.0
 21
297.0
 12
0.0
 22
0.0
 32
0.0
 14
1.0000000000E+20
 24
1.0000000000E+20
 34
1.0000000000E+20
 15
-1.0000000000E+20
 25
-1.0000000000E+20
 35
-1.0000000000E+20
146
0.0
 13
0.0
 23
0.0
 33
0.0
 16
1.0
 26
0.0
 36
0.0
 17
0.0
 27
1.0
 37
0.0
 76
     0
330
1B
  0
LAYOUT
  5
26
102
{ACAD_REACTORS
330
1A
102
}
330
1A
100
AcDbPlotSettings
  1

  2
none_device
  4

  6

 40
0.0
 41
0.0
 42
0.0
 43
0.0
 44
0.0
 45
0.0
 46
0.0
 47
0.0
 48
0.0
 49
0.0
140
0.0
141
0.0
142
1.0
143
1.0
 70
   688
 72
     0
 73
     0
 74
     5
  7

 75
    16
 76
     0
 77
     2
 78
   300
147
1.0
148
0.0
149
0.0
100
AcDbLayout
  1
Layout2
 70
     1
 71
     2
 10
0.0
 20
0.0
 11
0.0
 21
0.0
 12
0.0
 22
0.0
 32
0.0
 14
0.0
 24
0.0
 34
0.0
 15
0.0
 25
0.0
 35
0.0
146
0.0
 13
0.0
 23
0.0
 33
0.0
 16
1.0
 26
0.0
 36
0.0
 17
0.0
 27
1.0
 37
0.0
 76
     0
330
23
  0
LAYOUT
  5
22
102
{ACAD_REACTORS
330
1A
102
}
330
1A
100
AcDbPlotSettings
  1

  2
none_device
  4

  6

 40
0.0
 41
0.0
 42
0.0
 43
0.0
 44
0.0
 45
0.0
 46
0.0
 47
0.0
 48
0.0
 49
0.0
140
0.0
141
0.0
142
1.0
143
1.0
 70
  1712
 72
     0
 73
     0
 74
     0
  7

 75
     0
 76
     0
 77
     2
 78
   300
147
1.0
148
0.0
149
0.0
100
AcDbLayout
  1
Model
 70
     1
 71
     0
 10
0.0
 20
0.0
 11
297.0
 21
210.0
 12
0.0
 22
0.0
 32
0.0
 14
0.0
 24
0.0
 34
0.0
 15
297.0
 25
210.0
 35
0.0
146
0.0
 13
0.0
 23
0.0
 33
0.0
 16
1.0
 26
0.0
 36
0.0
 17
0.0
 27
1.0
 37
0.0
 76
     0
330
1F
331
29
  0
MATERIAL
  5
3D
102
{ACAD_REACTORS
330
3B
102
}
330
3B
100
AcDbMaterial
  1
ByBlock
 72
     1
 94
      127
  0
MATERIAL
  5
3C
102
{ACAD_REACTORS
330
3B
102
}
330
3B
100
AcDbMaterial
  1
ByLayer
 72
     1
 94
      127
  0
MATERIAL
  5
3E
102
{ACAD_REACTORS
330
3B
102
}
330
3B
100
AcDbMaterial
  1
Global
 72
     1
 94
      127
  0
MLINESTYLE
  5
18
102
{ACAD_REACTORS
330
17
102
}
330
17
100
AcDbMlineStyle
  2
Standard
 70
     0
  3

 62
   256
 51
90.0
 52
90.0
 71
     2
 49
0.5
 62
   256
  6
BYLAYER
 49
-0.5
 62
   256
  6
BYLAYER
  0
ACDBPLACEHOLDER
  5
F
102
{ACAD_REACTORS
330
E
102
}
330
E
  0
VISUALSTYLE
  5
2F
102
{ACAD_REACTORS
330
2A
102
}
330
2A
100
AcDbVisualStyle
  2
2dWireframe
 70
     4
 71
     0
 72
     2
 73
     0
 90
        0
 40
-0.6
 41
-30.0
 62
     5
 63
     7
421
 16777215
 74
     1
 91
        4
 64
     7
 65
   257
 75
     1
175
     1
 42
1.0
 92
        0
 66
   257
 43
1.0
 76
     1
 77
     6
 78
     2
 67
     7
 79
     5
170
     0
171
     0
290
     0
174
     0
 93
        1
 44
0.0
173
     0
291
     0
 45
0.0
  0
VISUALSTYLE
  5
31
102
{ACAD_REACTORS
330
2A
102
}
330
2A
100
AcDbVisualStyle
  2
3D Hidden
 70
     6
 71
     1
 72
     2
 73
     2
 90
        0
 40
-0.6
 41
-30.0
 62
     5
 63
     7
421
 16777215
 74
     2
 91
        2
 64
     7
 65
   257
 75
     2
175
     1
 42
40.0
 92
        0
 66
   257
 43
1.0
 76
     1
 77
     6
 78
     2
 67
     7
 79
     3
170
     0
171
     0
290
     0
174
     0
 93
        1
 44
0.0
173
     0
291
     0
 45
0.0
  0
VISUALSTYLE
  5
30
102
{ACAD_REACTORS
330
2A
102
}
330
2A
100
AcDbVisualStyle
  2
3dWireframe
 70
     5
 71
     0
 72
     2
 73
     0
 90
        0
 40
-0.6
 41
-30.0
 62
     5
 63
     7
421
 16777215
 74
     1
 91
        4
 64
     7
 65
   257
 75
     1
175
     1
 42
1.0
 92
        0
 66
   257
 43
1.0
 76
     1
 77
     6
 78
     2
 67
     7
 79
     5
170
     0
171
     0
290
     0
174
     0
 93
        1
 44
0.0
173
     0
291
     0
 45
0.0
  0
VISUALSTYLE
  5
32
102
{ACAD_REACTORS
330
2A
102
}
330
2A
100
AcDbVisualStyle
  2
Basic
 70
     7
 71
     1
 72
     0
 73
     1
 90
        0
 40
-0.6
 41
-30.0
 62
     5
 63
     7
421
 16777215
 74
     0
 91
        4
 64
     7
 65
   257
 75
     1
175
     1
 42
1.0
 92
        8
 66
     7
 43
1.0
 76
     1
 77
     6
 78
     2
 67
     7
 79
     5
170
     0
171
     0
290
     0
174
     0
 93
        1
 44
0.0
173
     0
291
     1
 45
0.0
  0
VISUALSTYLE
  5
36
102
{ACAD_REACTORS
330
2A
102
}
330
2A
100
AcDbVisualStyle
  2
Brighten
 70
    12
 71
     2
 72
     2
 73
     0
 90
        0
 40
-0.6
 41
-30.0
 62
     5
 63
     7
421
 16777215
 74
     1
 91
        4
 64
     7
 65
   257
 75
     1
175
     1
 42
1.0
 92
        8
 66
     7
 43
1.0
 76
     1
 77
     6
 78
     2
 67
     7
 79
     5
170
     0
171
     0
290
     0
174
     0
 93
        1
 44
50.0
173
     0
291
     1
 45
0.0
  0
VISUALSTYLE
  5
3A
102
{ACAD_REACTORS
330
2A
102
}
330
2A
100
AcDbVisualStyle
  2
ColorChange
 70
    16
 71
     2
 72
     2
 73
     3
 90
        0
 40
-0.6
 41
-30.0
 62
     5
 63
     8
421
  8421504
 74
     1
 91
        4
 64
     7
 65
   257
 75
     1
175
     1
 42
1.0
 92
        8
 66
     8
424
  8421504
 43
1.0
 76
     1
 77
     6
 78
     2
 67
     7
 79
     5
170
     0
171
     0
290
     0
174
     0
 93
        1
 44
0.0
173
     0
291
     1
 45
0.0
  0
VISUALSTYLE
  5
34
102
{ACAD_REACTORS
330
2A
102
}
330
2A
100
AcDbVisualStyle
  2
Conceptual
 70
     9
 71
     3
 72
     2
 73
     0
 90
        0
 40
-0.6
 41
-30.0
 62
     5
 63
     7
421
 16777215
 74
     2
 91
        2
 64
     7
 65
   257
 75
     1
175
     1
 42
40.0
 92
        8
 66
     7
 43
1.0
 76
     1
 77
     6
 78
     2
 67
     7
 79
     3
170
     0
171
     0
290
     0
174
     0
 93
        1
 44
0.0
173
     0
291
     0
 45
0.0
  0
VISUALSTYLE
  5
35
102
{ACAD_REACTORS
330
2A
102
}
330
2A
100
AcDbVisualStyle
  2
Dim
 70
    11
 71
     2
 72
     2
 73
     0
 90
        0
 40
-0.6
 41
-30.0
 62
     5
 63
     7
421
 16777215
 74
     1
 91
        4
 64
     7
 65
   257
 75
     1
175
     1
 42
1.0
 92
        8
 66
     7
 43
1.0
 76
     1
 77
     6
 78
     2
 67
     7
 79
     5
170
     0
171
     0
290
     0
174
     0
 93
        1
 44
-50.0
173
     0
291
     1
 45
0.0
  0
VISUALSTYLE
  5
39
102
{ACAD_REACTORS
330
2A
102
}
330
2A
100
AcDbVisualStyle
  2
Facepattern
 70
    15
 71
     2
 72
     2
 73
     0
 90
        0
 40
-0.6
 41
-30.0
 62
     5
 63
     7
421
 16777215
 74
     1
 91
        4
 64
     7
 65
   257
 75
     1
175
     1
 42
1.0
 92
        8
 66
     7
 43
1.0
 76
     1
 77
     6
 78
     2
 67
     7
 79
     5
170
     0
171
     0
290
     0
174
     0
 93
        1
 44
0.0
173
     0
291
     1
 45
0.0
  0
VISUALSTYLE
  5
2B
102
{ACAD_REACTORS
330
2A
102
}
330
2A
100
AcDbVisualStyle
  2
Flat
 70
     0
 71
     2
 72
     1
 73
     1
 90
        2
 40
-0.6
 41
30.0
 62
     5
 63
     7
421
 16777215
 74
     0
 91
        4
 64
     7
 65
   257
 75
     1
175
     1
 42
1.0
 92
        8
 66
     7
 43
1.0
 76
     1
 77
     6
 78
     2
 67
     7
 79
     5
170
     0
171
     0
290
     0
174
     0
 93
       13
 44
0.0
173
     0
291
     1
 45
0.0
  0
VISUALSTYLE
  5
2C
102
{ACAD_REACTORS
330
2A
102
}
330
2A
100
AcDbVisualStyle
  2
FlatWithEdges
 70
     1
 71
     2
 72
     1
 73
     1
 90
        2
 40
-0.6
 41
30.0
 62
     5
 63
     7
421
 16777215
 74
     1
 91
        4
 64
     7
 65
   257
 75
     1
175
     1
 42
1.0
 92
        0
 66
   257
 43
1.0
 76
     1
 77
     6
 78
     2
 67
     7
 79
     5
170
     0
171
     0
290
     0
174
     0
 93
       13
 44
0.0
173
     0
291
     1
 45
0.0
  0
VISUALSTYLE
  5
2D
102
{ACAD_REACTORS
330
2A
102
}
330
2A
100
AcDbVisualStyle
  2
Gouraud
 70
     2
 71
     2
 72
     2
 73
     1
 90
        2
 40
-0.6
 41
30.0
 62
     5
 63
     7
421
 16777215
 74
     0
 91
        4
 64
     7
 65
   257
 75
     1
175
     1
 42
1.0
 92
        0
 66
     7
 43
1.0
 76
     1
 77
     6
 78
     2
 67
     7
 79
     5
170
     0
171
     0
290
     0
174
     0
 93
       13
 44
0.0
173
     0
291
     1
 45
0.0
  0
VISUALSTYLE
  5
2E
102
{ACAD_REACTORS
330
2A
102
}
330
2A
100
AcDbVisualStyle
  2
GouraudWithEdges
 70
     3
 71
     2
 72
     2
 73
     1
 90
        2
 40
-0.6
 41
30.0
 62
     5
 63
     7
421
 16777215
 74
     1
 91
        4
 64
     7
 65
   257
 75
     1
175
     1
 42
1.0
 92
        0
 66
   257
 43
1.0
 76
     1
 77
     6
 78
     2
 67
     7
 79
     5
170
     0
171
     0
290
     0
174
     0
 93
       13
 44
0.0
173
     0
291
     1
 45
0.0
  0
VISUALSTYLE
  5
38
102
{ACAD_REACTORS
330
2A
102
}
330
2A
100
AcDbVisualStyle
  2
Linepattern
 70
    14
 71
     2
 72
     2
 73
     0
 90
        0
 40
-0.6
 41
-30.0
 62
     5
 63
     7
421
 16777215
 74
     1
 91
        4
 64
     7
 65
   257
 75
     7
175
     7
 42
1.0
 92
        8
 66
     7
 43
1.0
 76
     1
 77
     6
 78
     2
 67
     7
 79
     5
170
     0
171
     0
290
     0
174
     0
 93
        1
 44
0.0
173
     0
291
     1
 45
0.0
  0
VISUALSTYLE
  5
33
102
{ACAD_REACTORS
330
2A
102
}
330
2A
100
AcDbVisualStyle
  2
Realistic
 70
     8
 71
     2
 72
     2
 73
     0
 90
        0
 40
-0.6
 41
-30.0
 62
     5
 63
     7
421
 16777215
 74
     1
 91
        0
 64
     7
 65
   257
 75
     1
175
     1
 42
1.0
 92
        8
 66
     8
424
  7895160
 43
1.0
 76
     1
 77
     6
 78
     2
 67
     7
 79
     5
170
     0
171
     0
290
     0
174
     0
 93
       13
 44
0.0
173
     0
291
     0
 45
0.0
  0
VISUALSTYLE
  5
37
102
{ACAD_REACTORS
330
2A
102
}
330
2A
100
AcDbVisualStyle
  2
Thicken
 70
    13
 71
     2
 72
     2
 73
     0
 90
        0
 40
-0.6
 41
-30.0
 62
     5
 63
     7
421
 16777215
 74
     1
 91
        4
 64
     7
 65
   257
 75
     1
175
     1
 42
1.0
 92
       12
 66
     7
 43
1.0
 76
     1
 77
     6
 78
     2
 67
     7
 79
     5
170
     0
171
     0
290
     0
174
     0
 93
        1
 44
0.0
173
     0
291
     1
 45
0.0
  0
ENDSEC
  0
EOF
